<?xml version="1.0" standalone="no"?>
<!DOCTYPE svg PUBLIC "-//W3C//DTD SVG 1.1//EN" "http://www.w3.org/Graphics/SVG/1.1/DTD/svg11.dtd" >
<svg xmlns="http://www.w3.org/2000/svg">
<metadata></metadata>
<defs>
<font id="HelveticaNeueLight" horiz-adv-x="1138" >
<font-face units-per-em="2048" ascent="1632" descent="-416" />
<missing-glyph horiz-adv-x="1024" />
<glyph unicode="&#xfb01;" horiz-adv-x="909" d="M12 948v109h181v96q0 153 49 223q59 86 207 86q46 0 108 -8v-111q-74 11 -110.5 11t-65.5 -15.5t-42 -42.5q-17 -36 -17 -147v-92h208v-109h-208v-948h-129v948h-181zM655 0v1057h129v-1057h-129zM655 1255v207h129v-207h-129z" />
<glyph unicode="&#xfb02;" horiz-adv-x="909" d="M12 948v109h181v96q0 153 49 223q59 86 207 86q46 0 108 -8v-111q-74 11 -110.5 11t-65.5 -15.5t-42 -42.5q-17 -36 -17 -147v-92h208v-109h-208v-948h-129v948h-181zM655 0v1462h129v-1462h-129z" />
<glyph horiz-adv-x="0" />
<glyph horiz-adv-x="2048" />
<glyph unicode="&#xd;" horiz-adv-x="1024" />
<glyph unicode=" "  horiz-adv-x="1024" />
<glyph unicode="&#x09;" horiz-adv-x="1024" />
<glyph unicode="&#xa0;" horiz-adv-x="1024" />
<glyph unicode="!" horiz-adv-x="493" d="M162 0v217h172v-217h-172zM178 1026v436h139v-436l-30 -661h-78z" />
<glyph unicode="&#x22;" horiz-adv-x="757" d="M178 965v497h129v-497h-129zM451 965v497h129v-497h-129z" />
<glyph unicode="#" d="M72 457v92h237l45 319h-225v93h238l63 454h102l-63 -454h289l63 454h103l-64 -454h215v-93h-227l-45 -319h215v-92h-227l-64 -457h-102l63 457h-289l-63 -457h-103l64 457h-225zM412 549h288l45 319h-288z" />
<glyph unicode="$" d="M59 467h129q2 -178 89.5 -274.5t248.5 -114.5v606q-205 43 -302 117q-128 99 -128 293q0 178 126 292q120 107 304 107v160h80v-160q183 0 308 -121q130 -126 126 -323h-129q-2 154 -86 244.5t-219 90.5v-589q220 -45 324 -119q149 -105 149 -297q0 -191 -147 -307 q-131 -103 -326 -103v-174h-80v176q-239 24 -349 143q-110 118 -118 353zM225 1083q0 -76 25.5 -120.5t67.5 -73.5q56 -39 208 -76v571q-211 0 -278 -166q-23 -59 -23 -135zM606 78q230 0 314 162q30 57 30 134t-31.5 126t-80.5 80q-77 49 -232 88v-590z" />
<glyph unicode="%" horiz-adv-x="1820" d="M141 1059q0 272 177 357q63 30 149 30q166 0 250 -112q76 -101 76 -275q0 -274 -177 -357q-63 -30 -149 -30q-167 0 -250 112q-76 102 -76 275zM250 1057q0 -193 111 -265q42 -28 107 -28t106.5 27.5t66.5 70.5q43 74 43 195q0 195 -110 269q-41 28 -105.5 28t-107 -28 t-67.5 -72q-44 -80 -44 -197zM389 -70l928 1555h96l-926 -1555h-98zM1040 356q0 274 178 358q62 29 148 29q167 0 250 -111q76 -101 76 -276q0 -272 -178 -357q-62 -30 -148 -30q-166 0 -250 112q-76 101 -76 275zM1149 354q0 -190 112 -265q42 -28 106.5 -28t106.5 28 t66 71q43 75 43 194q0 198 -109 270q-42 27 -106.5 27t-106.5 -27.5t-67 -71.5q-45 -79 -45 -198z" />
<glyph unicode="&#x26;" horiz-adv-x="1251" d="M80 379q0 200 234 358q63 43 124 76q-92 116 -119 161q-61 103 -61 181t25.5 132t69.5 93q93 82 229 82q135 0 228 -82q95 -84 95 -215q0 -172 -180 -306q-51 -38 -107 -73l320 -385q27 53 35 107.5t8 138.5h129q0 -61 -17.5 -158.5t-68.5 -191.5l246 -297h-162l-156 190 q-80 -100 -190.5 -160.5t-222 -60.5t-192.5 27t-141 79q-126 111 -126 304zM209 367q0 -123 97 -209q90 -80 211 -80q210 0 355 209l-364 442q-141 -80 -192 -134q-107 -112 -107 -228zM387 1165q0 -105 164 -295q107 68 145 111q80 88 80 182t-57 142.5t-137 48.5 t-137.5 -48.5t-57.5 -140.5z" />
<glyph unicode="'" horiz-adv-x="569" d="M221 965v497h129v-497h-129z" />
<glyph unicode="(" horiz-adv-x="493" d="M104 545q0 501 289 948h103q-263 -420 -263 -995q0 -214 73 -461q68 -231 190 -428h-103q-218 362 -269 682q-20 121 -20 254z" />
<glyph unicode=")" horiz-adv-x="493" d="M-2 -391q262 419 262 995q0 212 -72 461q-69 235 -190 428h102q218 -362 270 -682q19 -121 19 -254q0 -504 -289 -948h-102z" />
<glyph unicode="*" horiz-adv-x="720" d="M55 1219l29 75l235 -84v252h80v-252l236 84l31 -75l-242 -80l147 -201l-65 -47l-150 205l-149 -205l-66 47l150 201z" />
<glyph unicode="+" horiz-adv-x="1228" d="M100 461v108h461v461h109v-461h460v-108h-460v-461h-109v461h-461z" />
<glyph unicode="," horiz-adv-x="569" d="M190 -193q45 14 74 81q25 58 21 112h-86v217h172v-219q0 -149 -101 -238q-32 -28 -80 -41v88z" />
<glyph unicode="-" horiz-adv-x="757" d="M123 504v119h512v-119h-512z" />
<glyph unicode="." horiz-adv-x="569" d="M199 0v217h172v-217h-172z" />
<glyph unicode="/" horiz-adv-x="681" d="M-27 -31l631 1524h105l-625 -1524h-111z" />
<glyph unicode="0" d="M70 707q0 312 93 495q54 107 152 175.5t255 68.5t254.5 -68.5t151.5 -175.5q93 -183 93 -493q0 -313 -93 -497q-123 -243 -407 -243q-156 0 -254 68.5t-152 174.5q-93 184 -93 495zM199 709q0 -254 62 -409q38 -95 111.5 -158.5t196.5 -63.5t197 63.5t112 158.5 q62 158 62 409q0 250 -62 407q-38 94 -112 157.5t-197 63.5t-196.5 -63.5t-111.5 -157.5q-62 -153 -62 -407z" />
<glyph unicode="1" d="M199 1065v92q84 4 152.5 10.5t118.5 32.5q107 54 132 234h105v-1434h-129v1065h-379z" />
<glyph unicode="2" d="M74 0q5 263 258 456q71 54 147 104t149.5 101.5t134 111.5t90.5 122.5t30 140.5t-26 132.5t-70 91.5q-90 77 -226 77q-167 0 -252 -121q-75 -107 -71 -278h-129q-4 229 110 364q121 144 348 144q195 0 317 -102q128 -107 128 -302q0 -233 -226 -412q-109 -87 -217 -151.5 t-173 -116.5q-155 -124 -175 -243h797v-119h-944z" />
<glyph unicode="3" d="M68 457h129q-6 -267 203 -351q69 -28 148 -28t144.5 20.5t116.5 61.5q113 91 113 235q0 147 -101 229q-92 74 -243 74h-109v109h109q116 0 195 61q95 74 95 199q0 133 -92 206q-81 64 -232 64t-234 -101t-81 -261h-129q0 206 122 337q126 134 331 134q183 0 307 -87 q137 -97 137 -278q0 -117 -62.5 -202.5t-178.5 -114.5v-4q141 -23 218 -118t77 -217.5t-40 -205t-107 -137.5q-139 -113 -347 -113q-227 0 -363 129q-144 134 -126 359z" />
<glyph unicode="4" d="M61 356v125l664 953h117v-969h215v-109h-215v-356h-119v356h-662zM178 465h545v780h-4z" />
<glyph unicode="5" d="M74 410h129q4 -147 104 -241q97 -91 248 -91q161 0 262 118q96 111 96 273q0 158 -103 265q-104 108 -263 108q-96 0 -181 -44t-139 -126h-110l139 743h717v-119h-627l-92 -475l4 -4q53 63 136 98t180.5 35t186.5 -36.5t151 -102.5q130 -137 130 -356q0 -210 -145 -347 q-146 -139 -352 -139q-202 0 -333 118q-134 121 -138 323z" />
<glyph unicode="6" d="M82 731q0 228 81 421q74 177 230 253q84 41 201 41q190 0 304 -93t136 -282h-129q-16 119 -95 192.5t-204 73.5q-223 0 -323 -223q-72 -161 -72 -418h4q51 106 154.5 172t219.5 66t203 -36t148 -100q129 -134 129 -343q0 -211 -137 -347q-138 -139 -348 -139 q-266 0 -382 171q-120 178 -120 591zM238 446q0 -257 196 -340q68 -28 154 -28t148.5 29.5t108.5 80.5q95 104 95 258q0 164 -91 269q-95 110 -256 110q-83 0 -149.5 -29.5t-112.5 -80.5q-93 -103 -93 -269z" />
<glyph unicode="7" d="M104 1296v119h922v-119q-347 -357 -500 -838q-67 -208 -80 -458h-139q24 367 159 660q139 303 431 636h-793z" />
<glyph unicode="8" d="M76 401q4 141 80.5 241.5t210.5 125.5v4q-113 35 -173.5 116t-60.5 186t38 173t99 112q122 87 297 87t299 -87q138 -98 138 -285q0 -104 -61.5 -186.5t-172.5 -117.5v-2q139 -29 216 -125t77 -223.5t-39 -208t-106 -134.5q-136 -108 -349 -108q-212 0 -347 108 q-146 116 -146 324zM205 401q0 -155 106 -242q99 -81 258 -81q252 0 337 180q28 61 28 141t-30 138.5t-80 98.5q-102 81 -255 77q-155 4 -256 -76q-108 -86 -108 -236zM262 1087q0 -134 96 -207q81 -61 212 -61q58 0 113.5 15.5t97.5 49.5q93 75 93 203q0 120 -88 187 q-83 63 -217 63q-126 0 -213 -63q-94 -68 -94 -187z" />
<glyph unicode="9" d="M70 961q0 211 136 347q138 138 349 138q265 0 381 -171q121 -180 121 -591q0 -228 -81 -421q-74 -176 -230 -253q-84 -41 -201 -41q-190 0 -304 93.5t-137 281.5h129q16 -119 95.5 -192.5t203.5 -73.5q125 0 203 63.5t121 159.5q72 161 72 418h-4q-51 -106 -154.5 -172 t-218 -66t-203 36t-150.5 99q-128 133 -128 345zM199 969q0 -162 91 -269q94 -110 256 -110q83 0 149.5 29.5t112.5 80.5q93 105 93 269q0 257 -197 339q-67 29 -152 29t-148.5 -29.5t-109.5 -79.5q-95 -103 -95 -259z" />
<glyph unicode=":" horiz-adv-x="569" d="M199 0v217h172v-217h-172zM199 807v217h172v-217h-172z" />
<glyph unicode=";" horiz-adv-x="569" d="M190 -193q45 14 74 81q25 58 21 112h-86v217h172v-219q0 -149 -101 -238q-32 -28 -80 -41v88zM199 807v217h172v-217h-172z" />
<glyph unicode="&#x3c;" horiz-adv-x="1228" d="M94 463v110l1041 480v-113l-914 -422l914 -422v-112z" />
<glyph unicode="=" horiz-adv-x="1228" d="M100 262v109h1030v-109h-1030zM100 666v108h1030v-108h-1030z" />
<glyph unicode="&#x3e;" horiz-adv-x="1228" d="M94 -16v112l914 422l-914 422v113l1041 -480v-110z" />
<glyph unicode="?" horiz-adv-x="1099" d="M111 1012q0 218 121 350q122 131 343 131q177 0 293 -101q123 -105 123 -278q0 -115 -50 -194.5t-122 -149.5t-108.5 -104.5t-55 -70.5t-24.5 -85t-8 -143h-129q-4 178 50 273q29 50 75.5 97t106.5 103q136 129 136 268q0 122 -87 200q-86 76 -188 76t-164.5 -28.5 t-102.5 -78.5q-84 -103 -80 -265h-129zM473 0v217h172v-217h-172z" />
<glyph unicode="@" horiz-adv-x="1638" d="M96 736q0 161 58.5 299.5t161 239.5t239.5 159.5t288.5 58.5t278.5 -46t220 -131q200 -181 200 -460q0 -239 -152 -421q-67 -81 -152 -127t-154 -46q-142 0 -154 137h-4q-129 -135 -260 -135q-124 0 -199 88q-72 84 -72 199.5t35 221.5t98.5 191t153.5 137t199 52 q152 0 217 -172l51 133h108l-196 -590q-26 -85 -23 -113q4 -57 49 -57q68 0 131.5 47.5t110.5 120.5q105 165 105 340q0 248 -172 396q-166 143 -410 143q-280 0 -467 -198q-180 -190 -180 -480q0 -281 185 -470q87 -89 207 -140.5t227.5 -51.5t182 18.5t144.5 54.5 q145 74 233 200h105q-88 -164 -267 -266q-172 -99 -352 -99t-319 59.5t-240.5 163t-158 243.5t-56.5 301zM524 571q0 -92 48.5 -145t121 -53t134 50t107.5 122.5t72.5 156.5t26.5 136.5t-14 86t-36 60.5q-50 59 -112 59q-144 0 -252 -164q-96 -145 -96 -309z" />
<glyph unicode="A" horiz-adv-x="1290" d="M-14 0l589 1462h156l574 -1462h-150l-178 455h-666l-176 -455h-149zM354 573h576l-283 750z" />
<glyph unicode="B" horiz-adv-x="1366" d="M147 0v1462h619q323 0 430 -188q39 -68 39 -147.5t-18.5 -134t-52.5 -98.5q-73 -95 -183 -118v-4q141 -18 225 -115.5t84 -240.5q0 -152 -84 -260q-72 -93 -236 -134q-85 -22 -204 -22h-619zM287 119h479q385 0 385 301q0 141 -100.5 211.5t-284.5 70.5h-479v-583z M287 821h479q160 0 248 73q82 68 82 175q0 274 -330 274h-479v-522z" />
<glyph unicode="C" horiz-adv-x="1441" d="M78 731q0 321 172 531q188 231 518 231q220 0 384 -121q175 -128 204 -352h-139q-36 167 -163 262q-124 92 -277.5 92t-258 -55t-170.5 -147q-131 -179 -131 -441t131 -441q147 -202 420 -202q197 0 326 138q123 131 143 331h139q-28 -269 -190 -429q-161 -159 -418 -159 q-330 0 -518 231q-172 210 -172 531z" />
<glyph unicode="D" horiz-adv-x="1402" d="M147 0v1462h506q672 -16 672 -731t-672 -731h-506zM287 119h297q318 0 458 141q144 144 144 471t-144 471q-140 141 -458 141h-297v-1224z" />
<glyph unicode="E" horiz-adv-x="1214" d="M147 0v1462h1010v-119h-870v-528h815v-119h-815v-577h880v-119h-1020z" />
<glyph unicode="F" horiz-adv-x="1099" d="M147 0v1462h928v-119h-788v-528h700v-119h-700v-696h-140z" />
<glyph unicode="G" horiz-adv-x="1517" d="M78 731q0 321 172 531q188 231 518 231q239 0 400 -123q171 -130 210 -362h-139q-13 134 -139 246q-136 120 -332 120q-274 0 -420 -202q-131 -179 -131 -441t131 -441q147 -202 420 -202q238 0 376 152q130 141 130 371v14h-498v118h621v-743h-101l-18 266h-4 q-105 -222 -352 -280q-74 -17 -154 -17q-330 0 -518 231q-172 210 -172 531z" />
<glyph unicode="H" horiz-adv-x="1441" d="M147 0v1462h140v-635h868v635h139v-1462h-139v709h-868v-709h-140z" />
<glyph unicode="I" horiz-adv-x="454" d="M158 0v1462h139v-1462h-139z" />
<glyph unicode="J" horiz-adv-x="1024" d="M43 469h139q2 -47 5 -112.5t29 -124.5q63 -144 247 -144q159 0 219 89q55 82 55 290v995h140v-1054q0 -227 -96 -331q-100 -108 -330 -108q-232 0 -330 155q-78 123 -78 345z" />
<glyph unicode="K" horiz-adv-x="1327" d="M147 0v1462h140v-786l850 786h188l-653 -604l684 -858h-180l-609 762l-280 -260v-502h-140z" />
<glyph unicode="L" horiz-adv-x="1099" d="M147 0v1462h140v-1343h819v-119h-959z" />
<glyph unicode="M" horiz-adv-x="1705" d="M143 0v1462h205l506 -1282l504 1282h205v-1462h-140v1264h-4l-499 -1264h-132l-501 1264h-4v-1264h-140z" />
<glyph unicode="N" horiz-adv-x="1441" d="M145 0v1462h156l852 -1237h4v1237h139v-1462h-155l-852 1237h-4v-1237h-140z" />
<glyph unicode="O" horiz-adv-x="1517" d="M70 731q0 321 172 531q188 231 518 231q328 0 516 -231q172 -210 172 -531t-172 -531q-188 -231 -516 -231q-330 0 -518 231q-172 210 -172 531zM209 732q0 -120 31.5 -235.5t98.5 -206.5q149 -202 421 -202q271 0 418 202q131 179 131 441t-131 441q-146 202 -418 202 q-273 0 -421 -202q-130 -177 -130 -440z" />
<glyph unicode="P" horiz-adv-x="1290" d="M147 0v1462h650q200 0 315 -110q119 -113 119 -308q0 -194 -119 -308q-115 -109 -315 -109h-510v-627h-140zM287 745h479q145 0 235.5 74t90.5 225q0 152 -90.5 225.5t-235.5 73.5h-479v-598z" />
<glyph unicode="Q" horiz-adv-x="1517" d="M70 731q0 321 172 531q188 231 518 231q328 0 516 -231q172 -210 172 -531q0 -170 -55.5 -321.5t-165.5 -257.5l209 -160l-70 -86l-227 172q-156 -109 -379 -109q-330 0 -518 231q-172 210 -172 531zM209 731q0 -264 130 -441q149 -202 421 -202q158 0 270 72l-192 145 l71 88l213 -162q98 92 142.5 225.5t44.5 264.5t-32 245.5t-99 205.5q-146 202 -418 202q-273 0 -421 -202q-130 -177 -130 -441z" />
<glyph unicode="R" horiz-adv-x="1366" d="M147 0v1462h670q193 0 313 -91q132 -101 132 -290q0 -139 -72 -241.5t-213 -130.5v-4q194 -22 239 -209q16 -67 19 -166t10 -153q14 -122 55 -177h-153q-32 62 -36 174q-8 248 -55 346q-64 129 -224 129h-17h-528v-649h-140zM287 768h520q133 0 221 76q94 81 94 212.5 t-78.5 209t-236.5 77.5h-520v-575z" />
<glyph unicode="S" horiz-adv-x="1290" d="M74 481h139v-12q0 -202 137 -297q120 -84 340 -84q140 0 251 69q136 84 136 228q0 161 -197 233q-53 19 -104 31l-325 80q-156 40 -230 107q-100 91 -100 245q0 151 97 261q134 151 407 151q231 0 379 -115q161 -123 161 -340h-139q-4 158 -125 251q-111 85 -274 85 q-250 0 -336 -154q-31 -55 -31 -121.5t17.5 -104.5t48.5 -64q58 -48 155 -70l357 -88q177 -45 267 -123q112 -97 112 -262q0 -133 -85 -246q-130 -172 -475 -172q-425 0 -547 282q-37 85 -37 197q0 16 1 33z" />
<glyph unicode="T" d="M-10 1343v119h1159v-119h-510v-1343h-139v1343h-510z" />
<glyph unicode="U" horiz-adv-x="1402" d="M133 526v936h139v-905q0 -364 248 -443q80 -26 181 -26t181.5 25.5t135.5 82.5q112 115 112 361v905h140v-936q0 -244 -132 -391q-150 -166 -438 -166q-285 0 -434 166q-133 147 -133 391z" />
<glyph unicode="V" horiz-adv-x="1214" d="M-14 1462h149l475 -1308h4l471 1308h148l-543 -1462h-162z" />
<glyph unicode="W" horiz-adv-x="1857" d="M0 1462h150l331 -1280h4l357 1280h174l358 -1280h4l334 1280h139l-403 -1462h-148l-370 1309h-4l-369 -1309h-151z" />
<glyph unicode="X" horiz-adv-x="1175" d="M-25 0l527 754l-496 708h164l414 -612l428 612h155l-499 -712l528 -750h-168l-444 645l-451 -645h-158z" />
<glyph unicode="Y" horiz-adv-x="1251" d="M-20 1462h165l482 -741l479 741h166l-578 -860v-602h-139v602z" />
<glyph unicode="Z" horiz-adv-x="1175" d="M10 0v123l963 1220h-897v119h1052v-123l-962 -1220h983v-119h-1139z" />
<glyph unicode="[" horiz-adv-x="493" d="M156 -391v1884h329v-109h-200v-1667h200v-108h-329z" />
<glyph unicode="\" horiz-adv-x="681" d="M-27 1493h105l631 -1524h-111z" />
<glyph unicode="]" horiz-adv-x="493" d="M8 -283h201v1667h-201v109h330v-1884h-330v108z" />
<glyph unicode="^" horiz-adv-x="1228" d="M90 487l471 928h107l471 -928h-117l-410 799l-403 -799h-119z" />
<glyph unicode="_" horiz-adv-x="1024" d="M0 -154h1024v-102h-1024v102z" />
<glyph unicode="`" horiz-adv-x="378" d="M-63 1493h159l215 -289h-104z" />
<glyph unicode="a" horiz-adv-x="1062" d="M66 279q0 111 49 173t130 95t182 46t174 21t103.5 15.5t51.5 22.5q43 30 43 103t-21.5 114.5t-59.5 66.5q-65 43 -191 43t-204.5 -58.5t-82.5 -187.5h-129q10 186 127.5 270t300.5 84q170 0 264 -63q125 -84 125 -276v-562q0 -77 74 -77h2q20 0 40 8v-109q-46 -8 -89 -8 t-73 13.5t-46 38.5q-27 39 -27 132h-4q-106 -163 -252 -200q-57 -15 -132 -15t-139.5 18.5t-112.5 56.5q-103 82 -103 235zM195 301.5q0 -63.5 19 -101.5t52 -66q66 -56 152 -56t153.5 22.5t117.5 65.5q110 95 110 244v168h-4q-16 -31 -103.5 -46.5t-174.5 -26.5 t-158.5 -33.5t-117.5 -64.5t-46 -105.5z" />
<glyph unicode="b" horiz-adv-x="1175" d="M123 0v1462h129v-606h4q38 108 146 173q95 58 218.5 58t212.5 -45t148 -122q117 -151 117 -392q0 -239 -117 -392q-128 -167 -358 -167q-129 0 -230.5 61.5t-146.5 170.5h-4v-201h-119zM252 528q0 -298 198 -410q70 -40 167.5 -40t163 40t107.5 104q81 122 81 306 q0 185 -81 308q-95 143 -265 143q-189 0 -288 -143q-83 -120 -83 -308z" />
<glyph unicode="c" horiz-adv-x="1062" d="M70 528q0 241 128 394q140 165 371 165q170 0 288 -90t140 -272h-129q-58 254 -299 254q-174 0 -277 -141q-93 -129 -93 -310q0 -180 93 -308q103 -142 277 -142q120 0 207 85t101 216h129q-27 -193 -142.5 -301.5t-294.5 -108.5q-232 0 -371 166q-128 154 -128 393z" />
<glyph unicode="d" horiz-adv-x="1175" d="M78 528q0 243 116 392q130 167 359 167q192 0 308 -131q38 -43 59 -100h4v606h129v-1462h-119v201h-4q-40 -101 -152 -169q-106 -63 -226 -63t-209 45t-149 122q-116 151 -116 392zM207 528q0 -184 81 -306q95 -144 265 -144q189 0 288 144q83 119 83 306q0 299 -198 411 q-71 40 -168 40t-162.5 -40t-107.5 -103q-81 -123 -81 -308z" />
<glyph unicode="e" horiz-adv-x="1062" d="M70 528q0 231 112 384q128 175 365 175q238 0 363 -185q103 -150 103 -372q0 -18 -1 -36h-813q0 -161 82 -279q95 -137 266 -137q141 0 221 74.5t111 195.5h129q-41 -180 -150.5 -279.5t-310.5 -99.5q-240 0 -365 167q-112 151 -112 392zM199 602h684q-4 155 -92 261 q-96 116 -244 116q-150 0 -246 -116q-84 -102 -102 -261z" />
<glyph unicode="f" horiz-adv-x="530" d="M12 948v109h181v96q0 153 49 223q59 86 207 86q46 0 108 -8v-111q-74 11 -110.5 11t-65.5 -15.5t-42 -42.5q-17 -36 -17 -147v-92h208v-109h-208v-948h-129v948h-181z" />
<glyph unicode="g" d="M70 555q0 227 124 376q129 156 353 156q117 0 207 -62t129 -151h4v183h129v-971q0 -249 -104 -372q-115 -136 -365 -136q-276 0 -392 176q-40 60 -46 144h129q27 -162 204 -200q52 -11 105 -11q180 0 260 102t80 297v143h-4q-45 -98 -133 -157.5t-209 -59.5t-211 42 t-148 116q-112 141 -112 385zM199 541q0 -174 86 -290q96 -130 260 -130q86 0 149.5 36t106.5 94q86 116 86 290q0 176 -78 297q-91 141 -262 141q-170 0 -266 -137q-82 -118 -82 -301z" />
<glyph unicode="h" horiz-adv-x="1099" d="M121 0v1462h129v-588h4q37 96 131 155q93 58 205.5 58t187 -28.5t119.5 -80.5q82 -95 82 -298v-680h-129v659q0 320 -268 320q-150 0 -242 -103q-86 -97 -90 -260v-616h-129z" />
<glyph unicode="i" horiz-adv-x="378" d="M125 0v1057h129v-1057h-129zM125 1255v207h129v-207h-129z" />
<glyph unicode="j" horiz-adv-x="378" d="M-61 -281q27 -3 47 -3q12 0 22 1q76 0 96.5 44t20.5 110v1186h129v-1155q0 -138 -44 -206q-57 -87 -181 -87l-90 4v106zM125 1255v207h129v-207h-129z" />
<glyph unicode="k" horiz-adv-x="1024" d="M123 0v1462h129v-917l586 512h172l-451 -391l481 -666h-161l-418 575l-209 -174v-401h-129z" />
<glyph unicode="l" horiz-adv-x="378" d="M125 0v1462h129v-1462h-129z" />
<glyph unicode="m" horiz-adv-x="1705" d="M123 0v1057h119v-178h6q111 208 346 208q104 0 189 -51t114 -155q47 104 139 155t197 51q350 0 350 -370v-717h-129v711q0 131 -55.5 199.5t-194.5 68.5q-154 0 -227 -117q-59 -95 -59 -264v-598h-130v717q0 262 -221 262q-159 0 -240 -111q-75 -104 -75 -278v-590h-129z " />
<glyph unicode="n" horiz-adv-x="1099" d="M121 0v1057h129v-183h4q37 96 131 155q93 58 205.5 58t187 -28.5t119.5 -80.5q82 -95 82 -298v-680h-129v659q0 320 -268 320q-150 0 -242 -103q-86 -97 -90 -260v-616h-129z" />
<glyph unicode="o" d="M70 528q0 241 128 394q140 165 371 165q232 0 371 -165q129 -153 129 -394q0 -239 -129 -393q-138 -166 -371 -166q-232 0 -371 166q-128 154 -128 393zM199 528q0 -180 93 -308q103 -142 277 -142q175 0 278 142q93 128 93 308q0 181 -93 310q-103 141 -278 141 q-174 0 -277 -141q-93 -129 -93 -310z" />
<glyph unicode="p" horiz-adv-x="1175" d="M123 -391v1448h119v-201h4q45 109 146.5 170t226.5 61t214 -45t148 -122q117 -151 117 -392q0 -239 -117 -392q-128 -167 -358 -167q-193 0 -309 131q-38 43 -58 101h-4v-592h-129zM252 528q0 -298 198 -410q70 -40 167.5 -40t163 40t107.5 104q81 122 81 306 q0 185 -81 308q-95 143 -265 143q-198 0 -293 -135q-78 -112 -78 -316z" />
<glyph unicode="q" horiz-adv-x="1175" d="M78 528q0 243 116 392q130 167 359 167q189 0 316 -137q40 -43 61 -94h4v201h119v-1448h-129v592h-4q-38 -109 -146 -173q-97 -59 -219.5 -59t-211.5 45t-149 122q-116 151 -116 392zM207 528q0 -184 81 -306q95 -144 265 -144q189 0 288 144q83 119 83 306 q0 299 -198 411q-71 40 -168 40t-162.5 -40t-107.5 -103q-81 -123 -81 -308z" />
<glyph unicode="r" horiz-adv-x="645" d="M123 0v1057h119v-248h4q48 129 152 199q95 64 225 64q11 0 22 -1v-129q-12 1 -23 1q-156 0 -260 -103q-110 -108 -110 -277v-563h-129z" />
<glyph unicode="s" horiz-adv-x="985" d="M63 342h130q8 -131 95 -197.5t216 -66.5q112 0 172.5 34.5t88.5 72.5t28 89.5t-19.5 83t-52.5 52.5q-56 37 -160 61l-166 37q-141 36 -195.5 79.5t-77 89.5t-22.5 120t36 131t94 92q110 67 268 67q258 0 353 -189q32 -64 34 -150h-129q-4 115 -85 176q-74 55 -192 55 q-166 0 -227 -96q-23 -35 -23 -82t21.5 -77t54.5 -50q47 -29 144 -56l172 -38q121 -18 205 -86q96 -79 96 -207q0 -158 -138 -245q-117 -73 -294.5 -73t-293.5 89t-133 284z" />
<glyph unicode="t" horiz-adv-x="606" d="M14 948v109h185v317h129v-317h215v-109h-215v-712q0 -63 17 -99.5t79 -38.5h31q46 0 88 4v-110l-115 -4q-129 0 -180 51q-49 49 -49 176v10v723h-185z" />
<glyph unicode="u" horiz-adv-x="1099" d="M121 371v686h129v-688q4 -143 66.5 -217t215.5 -74q155 0 242 131q76 115 76 293v555h129v-1057h-119v190h-4q-51 -106 -148.5 -163.5t-215.5 -57.5q-199 0 -285 108.5t-86 293.5z" />
<glyph unicode="v" horiz-adv-x="948" d="M4 1057h143l332 -928h4l328 928h133l-395 -1057h-137z" />
<glyph unicode="w" horiz-adv-x="1517" d="M16 1057h138l270 -905h4l258 905h145l259 -905h4l270 905h137l-340 -1057h-141l-260 889h-4l-258 -889h-142z" />
<glyph unicode="x" horiz-adv-x="985" d="M2 0l410 549l-379 508h162l301 -402l295 402h161l-381 -506l412 -551h-164l-332 444l-325 -444h-160z" />
<glyph unicode="y" horiz-adv-x="948" d="M4 1057h137l348 -901l326 901h129l-459 -1219q-55 -138 -106 -181q-57 -48 -172 -48q-83 4 -98 10v109q63 -11 97 -11t61.5 12.5t48.5 34.5q25 26 65 119l45 121z" />
<glyph unicode="z" horiz-adv-x="948" d="M31 0v104l690 844h-643v109h807v-92l-699 -856h727v-109h-882z" />
<glyph unicode="{" horiz-adv-x="681" d="M170 496v108q147 0 147 328v305q0 117 47.5 186.5t133.5 69.5h102v-109h-41q-85 0 -107 -131q-6 -39 -6 -79v-289q0 -147 -61 -245q-38 -60 -82 -87v-4q84 -51 125 -187q18 -61 18 -145v-289q0 -144 60 -194q22 -17 53 -17h41v-108h-102q-86 0 -133.5 69.5t-47.5 186.5 v303q0 328 -147 328z" />
<glyph unicode="|" horiz-adv-x="454" d="M174 -31v1524h109v-1524h-109z" />
<glyph unicode="}" horiz-adv-x="681" d="M82 -283h41q84 0 107 131q6 39 6 80v289q0 147 61 245q38 60 82 87v4q-84 51 -125 187q-18 61 -18 145v289q0 145 -60 193q-22 17 -53 17h-41v109h102q86 0 133.5 -69.5t47.5 -186.5v-303q0 -328 147 -328v-108q-147 0 -147 -328v-305q0 -117 -47.5 -186.5t-133.5 -69.5 h-102v108z" />
<glyph unicode="~" horiz-adv-x="1228" d="M141 461q58 119 165 161q40 15 94 15q80 0 186 -46.5t157.5 -66.5t101.5 -20t92 44t77 97l73 -74q-59 -84 -96 -115q-75 -61 -148 -61t-128.5 20.5t-108.5 46.5q-135 66 -211 66t-115.5 -44t-64.5 -97z" />
<glyph unicode="&#xa1;" horiz-adv-x="493" d="M162 840v217h172v-217h-172zM178 31l31 661h78l30 -661v-422h-139v422z" />
<glyph unicode="&#xa2;" d="M111 528q0 223 113 374q122 162 329 181v183h80v-179q164 -4 272 -96q114 -97 133 -266h-129q-54 246 -276 254v-901q112 8 191 91q80 84 94 210h129q-25 -186 -135.5 -295t-278.5 -115v-207h-80v209q-207 19 -329 183q-113 151 -113 374zM240 528q0 -165 78 -288 q85 -138 235 -160v895q-151 -23 -235 -157q-78 -124 -78 -290z" />
<glyph unicode="&#xa3;" d="M88 80q229 180 229 381q0 47 -16 110.5t-41 104.5h-166v65h129q-112 181 -112 330q0 205 145 321q128 101 338.5 101t336.5 -129t122 -356h-129q0 265 -196 348q-64 28 -140 28t-136.5 -19t-107.5 -59q-104 -89 -104 -243q0 -90 29.5 -147.5t51 -93.5t39.5 -81h328v-65 h-291q23 -37 36 -96.5t13 -102.5q0 -190 -225 -373l4 -4q121 62 194 62q109 0 214 -41q43 -16 84 -29.5t99.5 -13.5t121.5 33.5t106 81.5l66 -99q-68 -59 -137.5 -92t-148.5 -33q-115 0 -230 39q-47 16 -95 30.5t-99.5 14.5t-80 -6t-53.5 -17q-24 -12 -104 -61z" />
<glyph unicode="&#xa4;" d="M59 279l117 116q-113 141 -113 314q0 177 111 315l-115 115l78 78l115 -115q137 115 314.5 115t318.5 -113l112 113l78 -78l-110 -111q114 -142 114 -319q0 -178 -114 -320l110 -110l-78 -78l-112 112q-133 -112 -314 -112q-179 0 -319 114l-115 -114zM193 709 q0 -166 110 -278t268 -112t269 112q110 112 110 278q0 165 -110 277q-111 112 -269 112t-268 -112t-110 -277z" />
<glyph unicode="&#xa5;" d="M12 1462h148l407 -747l412 747h141l-432 -747h223v-92h-268l-12 -21v-149h280v-93h-280v-360h-129v360h-277v93h277v149l-13 21h-264v92h217z" />
<glyph unicode="&#xa6;" horiz-adv-x="454" d="M174 -31v563h109v-563h-109zM174 930v563h109v-563h-109z" />
<glyph unicode="&#xa7;" d="M92 690q0 97 66 176q56 68 157 111q-102 90 -102 223q0 136 109 217q101 76 256 76t257.5 -93t102.5 -270h-129q4 109 -63 180q-70 74 -175 74q-153 0 -209 -99q-20 -34 -20 -97.5t52 -118.5t130 -103t170 -93.5t170 -100.5t130.5 -127t52.5 -172q0 -192 -224 -287 q102 -90 103 -223q0 -135 -109 -217q-101 -76 -256 -76t-257.5 93.5t-102.5 269.5h129q-6 -167 139 -233q45 -21 93 -21t89 10t74 33q72 49 72 133t-52.5 139.5t-130 103.5t-170 93t-170 100t-130 127t-52.5 172zM221 694q0 -78 57.5 -140t139.5 -114.5t172 -98.5t155 -91 q173 72 173 221q0 82 -58.5 144.5t-141.5 113.5t-173 96t-156 90q-168 -70 -168 -221z" />
<glyph unicode="&#xa8;" horiz-adv-x="378" d="M-61 1239v207h139v-207h-139zM301 1239v207h139v-207h-139z" />
<glyph unicode="&#xa9;" horiz-adv-x="1638" d="M57 731q0 160 58.5 299t161 242.5t241.5 162t301 58.5t301.5 -58.5t241.5 -162t160.5 -242.5t58.5 -299t-58.5 -299t-160.5 -242.5t-241.5 -162t-301.5 -58.5t-301 58.5t-241.5 162t-161 242.5t-58.5 299zM176 731q0 -275 184 -463q86 -88 204 -139t256 -51t256 51 t204 139q182 186 182 463t-182 463q-186 190 -461 190q-137 0 -255 -51t-204 -139q-184 -188 -184 -463zM393 731q0 203 118 336t327 133q146 0 252 -80q105 -80 127 -229h-105q-18 92 -89 153.5t-168 62.5t-160.5 -27.5t-106.5 -79.5q-86 -104 -86 -269q0 -166 86 -268 q92 -109 252 -109q113 0 183.5 62.5t88.5 154.5h105q-20 -148 -127 -229q-106 -80 -231 -80t-208.5 35t-139.5 99q-118 133 -118 335z" />
<glyph unicode="&#xaa;" horiz-adv-x="636" d="M-10 950q0 127 118 172q66 27 184.5 38t146.5 22.5t28 46.5q0 137 -180 137q-72 0 -123 -35t-53 -108h-97q11 223 287 223q119 0 169 -31t71.5 -70.5t21.5 -103.5v-352q4 -47 51 -47q14 0 27 6v-70q-30 -6 -55 -6q-63 0 -81 29.5t-18 85.5h-4q-84 -133 -252 -133 q-104 0 -172.5 46t-68.5 150zM86 954q0 -49 48 -88q40 -32 90 -32t94 13t77 39q72 55 72 142v96h-4q-6 -14 -29.5 -19t-62.5 -12t-95.5 -14.5t-98.5 -20.5q-91 -30 -91 -104z" />
<glyph unicode="&#xab;" horiz-adv-x="872" d="M123 500v127l272 256v-138l-192 -182l192 -182v-137zM453 500v127l272 256v-138l-193 -182l193 -182v-137z" />
<glyph unicode="&#xac;" horiz-adv-x="1228" d="M100 666v108h1030v-547h-108v439h-922z" />
<glyph unicode="&#xad;" horiz-adv-x="757" d="M123 504v119h512v-119h-512z" />
<glyph unicode="&#xae;" horiz-adv-x="1638" d="M57 731q0 160 58.5 299t161 242.5t241.5 162t301 58.5t301.5 -58.5t241.5 -162t160.5 -242.5t58.5 -299t-58.5 -299t-160.5 -242.5t-241.5 -162t-301.5 -58.5t-301 58.5t-241.5 162t-161 242.5t-58.5 299zM176 731q0 -275 184 -463q86 -88 204 -139t256 -51t256 51 t204 139q182 186 182 463t-182 463q-86 88 -204 139t-256 51t-256 -51t-204 -139q-184 -188 -184 -463zM543 291v880h338q286 0 286 -243q0 -207 -221 -246l262 -391h-127l-247 391h-183v-391h-108zM651 774h144q130 0 174 18q90 35 90 136q0 151 -209 151h-199v-305z" />
<glyph unicode="&#xaf;" horiz-adv-x="378" d="M-147 1298v93h673v-93h-673z" />
<glyph unicode="&#xb0;" horiz-adv-x="819" d="M115 1151q0 123 87 210q85 85 208 85q126 0 210 -85q85 -87 85 -210q0 -121 -85 -208q-86 -87 -210 -87q-121 0 -208 87t-87 208zM195 1151q0 -90 63 -151q65 -64 152 -64q85 0 152 64q63 59 63 151q0 91 -63 153q-64 62 -152 62q-91 0 -152 -62q-63 -65 -63 -153z" />
<glyph unicode="&#xb1;" horiz-adv-x="1228" d="M100 0v109h1030v-109h-1030zM102 553v109h459v368h109v-368h460v-109h-460v-369h-109v369h-459z" />
<glyph unicode="&#xb2;" horiz-adv-x="681" d="M31 561q2 98 50 165t116.5 117t145.5 93t126 89t69.5 83t20.5 83t-17.5 77.5t-45.5 53.5q-59 44 -131 44t-110 -19.5t-63 -52.5q-47 -63 -47 -161h-96q-4 141 72 227t220 86t229 -62.5t85 -193.5q0 -142 -147 -248q-58 -42 -132.5 -83.5t-115.5 -70.5q-97 -67 -119 -147 h508v-80h-618z" />
<glyph unicode="&#xb3;" horiz-adv-x="681" d="M14 844h97q-4 -98 56 -159.5t169 -61.5q152 0 214 106q21 35 21 78q0 86 -66.5 129t-158.5 43h-72v80h72q73 0 114 27q77 51 77 127.5t-60.5 114.5t-150.5 38t-143.5 -59.5t-51.5 -151.5h-96q2 129 80 210t221 81q123 0 206 -54q91 -60 91 -173q0 -72 -41 -123.5 t-117 -67.5v-4q92 -12 142.5 -68.5t50.5 -132.5t-27 -127t-71 -84q-90 -69 -237 -69t-238 77.5t-81 223.5z" />
<glyph unicode="&#xb4;" horiz-adv-x="378" d="M68 1204l215 289h159l-270 -289h-104z" />
<glyph unicode="&#xb6;" horiz-adv-x="1228" d="M135 1061q0 195 120 298t337 103h471v-1824h-129v1716h-246v-1716h-129v1034q-182 0 -302 114q-122 117 -122 275z" />
<glyph unicode="&#xb7;" horiz-adv-x="569" d="M164 648q0 48 37 84t85 36t84 -37t36 -85t-37 -84t-85 -36t-84 37t-36 85z" />
<glyph unicode="&#xb8;" horiz-adv-x="378" d="M-12 -379l28 66q78 -29 142 -29q129 0 129 88q0 37 -27 57.5t-80 20.5t-86 -17l-33 31l125 162h72l-90 -119q151 25 214 -51q24 -29 24 -76q0 -85 -74 -134q-65 -42 -159.5 -42t-184.5 43z" />
<glyph unicode="&#xb9;" horiz-adv-x="681" d="M72 1196v80q131 5 170 22q74 32 92 129h82v-866h-97v635h-247z" />
<glyph unicode="&#xba;" horiz-adv-x="684" d="M6 1100q0 148 84 246q87 100 242 100q169 0 260 -100q86 -96 86 -246q0 -152 -86 -246q-91 -100 -257 -100q-83 0 -143.5 26.5t-101.5 73.5q-84 96 -84 246zM102 1100q0 -108 61 -182q69 -84 179 -84q112 0 180 84q60 74 60 182q0 106 -60 182q-67 84 -180 84 q-111 0 -179 -84q-61 -75 -61 -182z" />
<glyph unicode="&#xbb;" horiz-adv-x="872" d="M147 244v137l193 182l-193 182v138l273 -256v-127zM477 244v137l193 182l-193 182v138l273 -256v-127z" />
<glyph unicode="&#xbc;" horiz-adv-x="1708" d="M98 1196v80q132 5 171 22q73 33 91 129h82v-866h-96v635h-248zM272 -70l928 1555h96l-925 -1555h-99zM885 205v80l436 581h90v-581h139v-80h-139v-205h-96v205h-430zM979 285h336v442h-4z" />
<glyph unicode="&#xbd;" horiz-adv-x="1708" d="M98 1196v80q132 5 171 22q73 33 91 129h82v-866h-96v635h-248zM272 -70l928 1555h96l-925 -1555h-99zM983 0q2 98 50 164.5t117 117t145.5 93.5t126 89t69.5 83t20 83t-17 77.5t-46 52.5q-60 45 -131.5 45t-109.5 -19.5t-63 -52.5q-46 -63 -46 -162h-97q-4 141 72 227.5 t220.5 86.5t229.5 -62.5t85 -193.5q0 -141 -148 -248q-58 -42 -132.5 -83.5t-115.5 -69.5q-98 -68 -118 -148h508v-80h-619z" />
<glyph unicode="&#xbe;" horiz-adv-x="1708" d="M14 844h97q-4 -98 56 -159.5t169 -61.5q152 0 214 106q21 35 21 78q0 86 -66.5 129t-158.5 43h-72v80h72q73 0 114 27q77 51 77 127.5t-60.5 114.5t-150.5 38t-143.5 -59.5t-51.5 -151.5h-96q2 129 80 210t221 81q123 0 206 -54q91 -60 91 -173q0 -72 -41 -123.5 t-117 -67.5v-4q92 -12 142.5 -68.5t50.5 -132.5t-27 -127t-71 -84q-90 -69 -237 -69t-238 77.5t-81 223.5zM352 -70l928 1555h96l-925 -1555h-99zM883 205v80l436 581h90v-581h139v-80h-139v-205h-96v205h-430zM977 285h336v442h-4z" />
<glyph unicode="&#xbf;" horiz-adv-x="1099" d="M111 -43q0 115 50 194.5t122 149.5t108.5 104.5t55 70.5t24.5 85t8 144h129q4 -179 -51 -274q-29 -50 -74 -97t-106 -104q-137 -126 -137 -267q0 -122 87 -199q86 -77 187.5 -77t164 28.5t103.5 78.5q84 103 80 265h129q0 -218 -121 -349q-122 -132 -344 -132 q-176 0 -292 100q-123 106 -123 279zM457 840v217h172v-217h-172z" />
<glyph unicode="&#xc0;" horiz-adv-x="1290" d="M-14 0l589 1462h156l574 -1462h-150l-178 455h-666l-176 -455h-149zM354 573h576l-283 750zM394 1868h159l215 -289h-104z" />
<glyph unicode="&#xc1;" horiz-adv-x="1290" d="M-14 0l589 1462h156l574 -1462h-150l-178 455h-666l-176 -455h-149zM354 573h576l-283 750zM525 1579l215 289h159l-270 -289h-104z" />
<glyph unicode="&#xc2;" horiz-adv-x="1290" d="M-14 0l589 1462h156l574 -1462h-150l-178 455h-666l-176 -455h-149zM342 1579l234 289h141l234 -289h-134l-176 209l-180 -209h-119zM354 573h576l-283 750z" />
<glyph unicode="&#xc3;" horiz-adv-x="1290" d="M-14 0l589 1462h156l574 -1462h-150l-178 455h-666l-176 -455h-149zM324 1620q8 77 55 135q52 62 127 62q45 0 82 -14q61 -24 113.5 -50t81.5 -26q77 0 106 98h78q-22 -129 -106 -178q-31 -17 -72 -17q-80 0 -220 78q-30 17 -67 17t-67.5 -27t-30.5 -78h-80zM354 573h576 l-283 750z" />
<glyph unicode="&#xc4;" horiz-adv-x="1290" d="M-14 0l589 1462h156l574 -1462h-150l-178 455h-666l-176 -455h-149zM354 573h576l-283 750zM396 1614v207h139v-207h-139zM758 1614v207h139v-207h-139z" />
<glyph unicode="&#xc5;" horiz-adv-x="1290" d="M-14 0l589 1462h156l574 -1462h-150l-178 455h-666l-176 -455h-149zM354 573h576l-283 750zM428 1761q0 90 65 155t154 65q90 0 155 -65t65 -155q0 -89 -65 -154t-155 -65q-89 0 -154 65t-65 154zM508 1761q0 -59 40 -99t99 -40t99.5 40t40.5 99t-40 99.5t-100 40.5 q-59 0 -99 -40.5t-40 -99.5z" />
<glyph unicode="&#xc6;" horiz-adv-x="1857" d="M-14 0l766 1462h1050v-119h-751v-528h704v-119h-704v-577h759v-119h-899v463h-530l-238 -463h-157zM442 582h469v761h-82z" />
<glyph unicode="&#xc7;" horiz-adv-x="1441" d="M78 731q0 321 172 531q188 231 518 231q220 0 384 -121q175 -128 204 -352h-139q-36 167 -163 262q-124 92 -277.5 92t-258 -55t-170.5 -147q-131 -179 -131 -441t131 -441q147 -202 420 -202q197 0 326 138q123 131 143 331h139q-28 -269 -190 -429q-161 -159 -418 -159 q-330 0 -518 231q-172 210 -172 531zM520 -379l28 66q78 -29 142 -29q129 0 129 88q0 37 -27 57.5t-80 20.5t-86 -17l-33 31l125 162h72l-90 -119q151 25 214 -51q24 -29 24 -76q0 -85 -74 -134q-65 -42 -159.5 -42t-184.5 43z" />
<glyph unicode="&#xc8;" horiz-adv-x="1214" d="M147 0v1462h1010v-119h-870v-528h815v-119h-815v-577h880v-119h-1020zM355 1868h159l215 -289h-104z" />
<glyph unicode="&#xc9;" horiz-adv-x="1214" d="M147 0v1462h1010v-119h-870v-528h815v-119h-815v-577h880v-119h-1020zM486 1579l215 289h159l-270 -289h-104z" />
<glyph unicode="&#xca;" horiz-adv-x="1214" d="M147 0v1462h1010v-119h-870v-528h815v-119h-815v-577h880v-119h-1020zM303 1579l234 289h141l234 -289h-134l-176 209l-180 -209h-119z" />
<glyph unicode="&#xcb;" horiz-adv-x="1214" d="M147 0v1462h1010v-119h-870v-528h815v-119h-815v-577h880v-119h-1020zM357 1614v207h139v-207h-139zM719 1614v207h139v-207h-139z" />
<glyph unicode="&#xcc;" horiz-adv-x="454" d="M-24 1868h159l215 -289h-104zM158 0v1462h139v-1462h-139z" />
<glyph unicode="&#xcd;" horiz-adv-x="454" d="M107 1579l215 289h159l-270 -289h-104zM158 0v1462h139v-1462h-139z" />
<glyph unicode="&#xce;" horiz-adv-x="454" d="M-76 1579l234 289h141l234 -289h-134l-176 209l-180 -209h-119zM158 0v1462h139v-1462h-139z" />
<glyph unicode="&#xcf;" horiz-adv-x="454" d="M-22 1614v207h139v-207h-139zM158 0v1462h139v-1462h-139zM340 1614v207h139v-207h-139z" />
<glyph unicode="&#xd0;" horiz-adv-x="1402" d="M0 713v92h147v657h506q672 -16 672 -731t-672 -731h-506v713h-147zM287 119h297q318 0 458 141q144 144 144 471t-144 471q-140 141 -458 141h-297v-538h483v-92h-483v-594z" />
<glyph unicode="&#xd1;" horiz-adv-x="1441" d="M145 0v1462h156l852 -1237h4v1237h139v-1462h-155l-852 1237h-4v-1237h-140zM399 1620q8 77 55 135q52 62 127 62q45 0 82 -14q61 -24 113.5 -50t81.5 -26q77 0 106 98h78q-22 -129 -106 -178q-31 -17 -72 -17q-80 0 -220 78q-30 17 -67 17t-67.5 -27t-30.5 -78h-80z" />
<glyph unicode="&#xd2;" horiz-adv-x="1517" d="M70 731q0 321 172 531q188 231 518 231q328 0 516 -231q172 -210 172 -531t-172 -531q-188 -231 -516 -231q-330 0 -518 231q-172 210 -172 531zM209 732q0 -120 31.5 -235.5t98.5 -206.5q149 -202 421 -202q271 0 418 202q131 179 131 441t-131 441q-146 202 -418 202 q-273 0 -421 -202q-130 -177 -130 -440zM506 1868h159l215 -289h-104z" />
<glyph unicode="&#xd3;" horiz-adv-x="1517" d="M70 731q0 321 172 531q188 231 518 231q328 0 516 -231q172 -210 172 -531t-172 -531q-188 -231 -516 -231q-330 0 -518 231q-172 210 -172 531zM209 732q0 -120 31.5 -235.5t98.5 -206.5q149 -202 421 -202q271 0 418 202q131 179 131 441t-131 441q-146 202 -418 202 q-273 0 -421 -202q-130 -177 -130 -440zM637 1579l215 289h159l-270 -289h-104z" />
<glyph unicode="&#xd4;" horiz-adv-x="1517" d="M70 731q0 321 172 531q188 231 518 231q328 0 516 -231q172 -210 172 -531t-172 -531q-188 -231 -516 -231q-330 0 -518 231q-172 210 -172 531zM209 732q0 -120 31.5 -235.5t98.5 -206.5q149 -202 421 -202q271 0 418 202q131 179 131 441t-131 441q-146 202 -418 202 q-273 0 -421 -202q-130 -177 -130 -440zM454 1579l234 289h141l234 -289h-134l-176 209l-180 -209h-119z" />
<glyph unicode="&#xd5;" horiz-adv-x="1517" d="M70 731q0 321 172 531q188 231 518 231q328 0 516 -231q172 -210 172 -531t-172 -531q-188 -231 -516 -231q-330 0 -518 231q-172 210 -172 531zM209 732q0 -120 31.5 -235.5t98.5 -206.5q149 -202 421 -202q271 0 418 202q131 179 131 441t-131 441q-146 202 -418 202 q-273 0 -421 -202q-130 -177 -130 -440zM436 1620q8 77 55 135q52 62 127 62q45 0 82 -14q61 -24 113.5 -50t81.5 -26q77 0 106 98h78q-22 -129 -106 -178q-31 -17 -72 -17q-80 0 -220 78q-30 17 -67 17t-67.5 -27t-30.5 -78h-80z" />
<glyph unicode="&#xd6;" horiz-adv-x="1517" d="M70 731q0 321 172 531q188 231 518 231q328 0 516 -231q172 -210 172 -531t-172 -531q-188 -231 -516 -231q-330 0 -518 231q-172 210 -172 531zM209 732q0 -120 31.5 -235.5t98.5 -206.5q149 -202 421 -202q271 0 418 202q131 179 131 441t-131 441q-146 202 -418 202 q-273 0 -421 -202q-130 -177 -130 -440zM508 1614v207h139v-207h-139zM870 1614v207h139v-207h-139z" />
<glyph unicode="&#xd7;" horiz-adv-x="1228" d="M152 127l385 387l-385 387l75 76l387 -387l387 387l76 -76l-387 -387l387 -387l-76 -76l-387 385l-387 -385z" />
<glyph unicode="&#xd8;" horiz-adv-x="1517" d="M70 731q0 321 172 531q188 231 518 231q287 0 471 -180l145 160l54 -48l-150 -165q168 -203 168 -529q0 -321 -172 -531q-188 -231 -516 -231q-290 0 -473 183l-156 -177l-55 52l162 180q-168 207 -168 524zM209 731q0 -255 119 -424l815 907q-147 160 -383 160 q-273 0 -421 -202q-130 -177 -130 -441zM375 250q145 -162 385 -162q271 0 418 202q131 179 131 441q0 257 -121 426z" />
<glyph unicode="&#xd9;" horiz-adv-x="1402" d="M133 526v936h139v-905q0 -364 248 -443q80 -26 181 -26t181.5 25.5t135.5 82.5q112 115 112 361v905h140v-936q0 -244 -132 -391q-150 -166 -438 -166q-285 0 -434 166q-133 147 -133 391zM449 1868h159l215 -289h-104z" />
<glyph unicode="&#xda;" horiz-adv-x="1402" d="M133 526v936h139v-905q0 -364 248 -443q80 -26 181 -26t181.5 25.5t135.5 82.5q112 115 112 361v905h140v-936q0 -244 -132 -391q-150 -166 -438 -166q-285 0 -434 166q-133 147 -133 391zM580 1579l215 289h159l-270 -289h-104z" />
<glyph unicode="&#xdb;" horiz-adv-x="1402" d="M133 526v936h139v-905q0 -364 248 -443q80 -26 181 -26t181.5 25.5t135.5 82.5q112 115 112 361v905h140v-936q0 -244 -132 -391q-150 -166 -438 -166q-285 0 -434 166q-133 147 -133 391zM397 1579l234 289h141l234 -289h-134l-176 209l-180 -209h-119z" />
<glyph unicode="&#xdc;" horiz-adv-x="1402" d="M133 526v936h139v-905q0 -364 248 -443q80 -26 181 -26t181.5 25.5t135.5 82.5q112 115 112 361v905h140v-936q0 -244 -132 -391q-150 -166 -438 -166q-285 0 -434 166q-133 147 -133 391zM451 1614v207h139v-207h-139zM813 1614v207h139v-207h-139z" />
<glyph unicode="&#xdd;" horiz-adv-x="1251" d="M-20 1462h165l482 -741l479 741h166l-578 -860v-602h-139v602zM504 1579l215 289h159l-270 -289h-104z" />
<glyph unicode="&#xde;" horiz-adv-x="1290" d="M147 0v1462h140v-239h510q199 0 315 -110q119 -113 119 -308t-119 -309q-115 -109 -315 -109h-510v-387h-140zM287 506h479q145 0 235.5 73.5t90.5 225.5t-90.5 225.5t-235.5 73.5h-479v-598z" />
<glyph unicode="&#xdf;" horiz-adv-x="1099" d="M125 0v1096q0 198 113 301q104 96 294 96q172 0 283 -93q119 -100 119 -267q0 -113 -60 -197q-62 -85 -172 -111v-4q143 -12 228 -125q78 -106 78 -236.5t-35 -215t-95 -142.5q-121 -114 -325 -118h-51q-25 0 -51 4v112q50 -8 104.5 -8t114 17.5t105.5 57.5 q104 90 104 253q0 281 -255 322q-79 12 -173 12v108q245 0 324 136q30 51 30 119t-21.5 115.5t-58.5 81.5q-76 70 -210 70q-261 0 -261 -299v-1085h-129z" />
<glyph unicode="&#xe0;" horiz-adv-x="1062" d="M66 279q0 111 49 173t130 95t182 46t174 21t103.5 15.5t51.5 22.5q43 30 43 103t-21.5 114.5t-59.5 66.5q-65 43 -191 43t-204.5 -58.5t-82.5 -187.5h-129q10 186 127.5 270t300.5 84q170 0 264 -63q125 -84 125 -276v-562q0 -78 76 -77q20 0 40 8v-109q-46 -8 -89 -8 t-73 13.5t-46 38.5q-27 39 -27 132h-4q-106 -163 -252 -200q-57 -15 -132 -15t-139.5 18.5t-112.5 56.5q-103 82 -103 235zM195 301.5q0 -63.5 19 -101.5t52 -66q66 -56 152 -56t153.5 22.5t117.5 65.5q110 95 110 244v168h-4q-16 -31 -103.5 -46.5t-174.5 -26.5 t-158.5 -33.5t-117.5 -64.5t-46 -105.5zM279 1493h159l215 -289h-104z" />
<glyph unicode="&#xe1;" horiz-adv-x="1062" d="M66 279q0 111 49 173t130 95t182 46t174 21t103.5 15.5t51.5 22.5q43 30 43 103t-21.5 114.5t-59.5 66.5q-65 43 -191 43t-204.5 -58.5t-82.5 -187.5h-129q10 186 127.5 270t300.5 84q170 0 264 -63q125 -84 125 -276v-562q0 -78 76 -77q20 0 40 8v-109q-46 -8 -89 -8 t-73 13.5t-46 38.5q-27 39 -27 132h-4q-106 -163 -252 -200q-57 -15 -132 -15t-139.5 18.5t-112.5 56.5q-103 82 -103 235zM195 301.5q0 -63.5 19 -101.5t52 -66q66 -56 152 -56t153.5 22.5t117.5 65.5q110 95 110 244v168h-4q-16 -31 -103.5 -46.5t-174.5 -26.5 t-158.5 -33.5t-117.5 -64.5t-46 -105.5zM410 1204l215 289h159l-270 -289h-104z" />
<glyph unicode="&#xe2;" horiz-adv-x="1062" d="M66 279q0 111 49 173t130 95t182 46t174 21t103.5 15.5t51.5 22.5q43 30 43 103t-21.5 114.5t-59.5 66.5q-65 43 -191 43t-204.5 -58.5t-82.5 -187.5h-129q10 186 127.5 270t300.5 84q170 0 264 -63q125 -84 125 -276v-562q0 -78 76 -77q20 0 40 8v-109q-46 -8 -89 -8 t-73 13.5t-46 38.5q-27 39 -27 132h-4q-106 -163 -252 -200q-57 -15 -132 -15t-139.5 18.5t-112.5 56.5q-103 82 -103 235zM195 301.5q0 -63.5 19 -101.5t52 -66q66 -56 152 -56t153.5 22.5t117.5 65.5q110 95 110 244v168h-4q-16 -31 -103.5 -46.5t-174.5 -26.5 t-158.5 -33.5t-117.5 -64.5t-46 -105.5zM227 1204l234 289h141l234 -289h-134l-176 209l-180 -209h-119z" />
<glyph unicode="&#xe3;" horiz-adv-x="1062" d="M66 279q0 111 49 173t130 95t182 46t174 21t103.5 15.5t51.5 22.5q43 30 43 103t-21.5 114.5t-59.5 66.5q-65 43 -191 43t-204.5 -58.5t-82.5 -187.5h-129q10 186 127.5 270t300.5 84q170 0 264 -63q125 -84 125 -276v-562q0 -78 76 -77q20 0 40 8v-109q-46 -8 -89 -8 t-73 13.5t-46 38.5q-27 39 -27 132h-4q-106 -163 -252 -200q-57 -15 -132 -15t-139.5 18.5t-112.5 56.5q-103 82 -103 235zM195 301.5q0 -63.5 19 -101.5t52 -66q66 -56 152 -56t153.5 22.5t117.5 65.5q110 95 110 244v168h-4q-16 -31 -103.5 -46.5t-174.5 -26.5 t-158.5 -33.5t-117.5 -64.5t-46 -105.5zM209 1245q8 77 55 135q52 62 127 62q45 0 82 -14q61 -24 113.5 -50t81.5 -26q77 0 106 98h78q-22 -129 -106 -178q-31 -17 -72 -17q-80 0 -220 78q-30 17 -67 17t-67.5 -27t-30.5 -78h-80z" />
<glyph unicode="&#xe4;" horiz-adv-x="1062" d="M66 279q0 111 49 173t130 95t182 46t174 21t103.5 15.5t51.5 22.5q43 30 43 103t-21.5 114.5t-59.5 66.5q-65 43 -191 43t-204.5 -58.5t-82.5 -187.5h-129q10 186 127.5 270t300.5 84q170 0 264 -63q125 -84 125 -276v-562q0 -78 76 -77q20 0 40 8v-109q-46 -8 -89 -8 t-73 13.5t-46 38.5q-27 39 -27 132h-4q-106 -163 -252 -200q-57 -15 -132 -15t-139.5 18.5t-112.5 56.5q-103 82 -103 235zM195 301.5q0 -63.5 19 -101.5t52 -66q66 -56 152 -56t153.5 22.5t117.5 65.5q110 95 110 244v168h-4q-16 -31 -103.5 -46.5t-174.5 -26.5 t-158.5 -33.5t-117.5 -64.5t-46 -105.5zM281 1239v207h139v-207h-139zM643 1239v207h139v-207h-139z" />
<glyph unicode="&#xe5;" horiz-adv-x="1062" d="M66 279q0 111 49 173t130 95t182 46t174 21t103.5 15.5t51.5 22.5q43 30 43 103t-21.5 114.5t-59.5 66.5q-65 43 -191 43t-204.5 -58.5t-82.5 -187.5h-129q10 186 127.5 270t300.5 84q170 0 264 -63q125 -84 125 -276v-562q0 -78 76 -77q20 0 40 8v-109q-46 -8 -89 -8 t-73 13.5t-46 38.5q-27 39 -27 132h-4q-106 -163 -252 -200q-57 -15 -132 -15t-139.5 18.5t-112.5 56.5q-103 82 -103 235zM195 301.5q0 -63.5 19 -101.5t52 -66q66 -56 152 -56t153.5 22.5t117.5 65.5q110 95 110 244v168h-4q-16 -31 -103.5 -46.5t-174.5 -26.5 t-158.5 -33.5t-117.5 -64.5t-46 -105.5zM313 1386q0 90 65 155t154 65q90 0 155 -65t65 -155q0 -89 -65 -154t-155 -65q-89 0 -154 65t-65 154zM393 1386q0 -59 40 -99t99 -40t99.5 40t40.5 99t-40 99.5t-100 40.5q-59 0 -99 -40.5t-40 -99.5z" />
<glyph unicode="&#xe6;" horiz-adv-x="1781" d="M66 294.5q0 95.5 49 157.5t130 95t182 46t174 21t103.5 15.5t51.5 22.5q43 30 43 103t-21.5 114.5t-59.5 66.5q-65 43 -191 43t-204.5 -58.5t-82.5 -187.5h-129q10 186 127.5 270t300.5 84q214 0 307 -108q37 -43 45 -111h4q68 163 256 206q57 13 115 13q242 0 358 -181 q98 -153 98 -412h-794q-13 -180 73 -292q94 -124 271 -124q252 0 313 264h129q-41 -178 -158.5 -275.5t-302.5 -97.5q-293 0 -387 267h-4q-23 -125 -164 -200q-125 -67 -278 -67q-246 0 -326 171q-28 59 -28 154.5zM195 301.5q0 -63.5 19 -101.5t52 -66q66 -56 152 -56 t153.5 22.5t117.5 65.5q110 95 110 244v168h-4q-16 -31 -103.5 -46.5t-174.5 -26.5t-158.5 -33.5t-117.5 -64.5t-46 -105.5zM928 602h665q0 152 -90 261q-96 116 -243 116q-155 0 -248 -113q-88 -108 -84 -264z" />
<glyph unicode="&#xe7;" horiz-adv-x="1062" d="M70 528q0 241 128 394q140 165 371 165q170 0 288 -90t140 -272h-129q-58 254 -299 254q-174 0 -277 -141q-93 -129 -93 -310q0 -180 93 -308q103 -142 277 -142q120 0 207 85t101 216h129q-27 -193 -142.5 -301.5t-294.5 -108.5q-232 0 -371 166q-128 154 -128 393z M330 -379l28 66q78 -29 142 -29q129 0 129 88q0 37 -27 57.5t-80 20.5t-86 -17l-33 31l125 162h72l-90 -119q151 25 214 -51q24 -29 24 -76q0 -85 -74 -134q-65 -42 -159.5 -42t-184.5 43z" />
<glyph unicode="&#xe8;" horiz-adv-x="1062" d="M70 528q0 231 112 384q128 175 365 175q238 0 363 -185q111 -162 102 -408h-813q0 -161 82 -279q95 -137 266 -137q141 0 221 74.5t111 195.5h129q-41 -180 -150.5 -279.5t-310.5 -99.5q-240 0 -365 167q-112 151 -112 392zM199 602h684q-4 155 -92 261q-96 116 -244 116 q-150 0 -246 -116q-84 -102 -102 -261zM279 1493h159l215 -289h-104z" />
<glyph unicode="&#xe9;" horiz-adv-x="1062" d="M70 528q0 231 112 384q128 175 365 175q238 0 363 -185q111 -162 102 -408h-813q0 -161 82 -279q95 -137 266 -137q141 0 221 74.5t111 195.5h129q-41 -180 -150.5 -279.5t-310.5 -99.5q-240 0 -365 167q-112 151 -112 392zM199 602h684q-4 155 -92 261q-96 116 -244 116 q-150 0 -246 -116q-84 -102 -102 -261zM410 1204l215 289h159l-270 -289h-104z" />
<glyph unicode="&#xea;" horiz-adv-x="1062" d="M70 528q0 231 112 384q128 175 365 175q238 0 363 -185q111 -162 102 -408h-813q0 -161 82 -279q95 -137 266 -137q141 0 221 74.5t111 195.5h129q-41 -180 -150.5 -279.5t-310.5 -99.5q-240 0 -365 167q-112 151 -112 392zM199 602h684q-4 155 -92 261q-96 116 -244 116 q-150 0 -246 -116q-84 -102 -102 -261zM227 1204l234 289h141l234 -289h-134l-176 209l-180 -209h-119z" />
<glyph unicode="&#xeb;" horiz-adv-x="1062" d="M70 528q0 231 112 384q128 175 365 175q238 0 363 -185q111 -162 102 -408h-813q0 -161 82 -279q95 -137 266 -137q141 0 221 74.5t111 195.5h129q-41 -180 -150.5 -279.5t-310.5 -99.5q-240 0 -365 167q-112 151 -112 392zM199 602h684q-4 155 -92 261q-96 116 -244 116 q-150 0 -246 -116q-84 -102 -102 -261zM281 1239v207h139v-207h-139zM643 1239v207h139v-207h-139z" />
<glyph unicode="&#xec;" horiz-adv-x="378" d="M-63 1493h159l215 -289h-104zM125 0v1057h129v-1057h-129z" />
<glyph unicode="&#xed;" horiz-adv-x="378" d="M68 1204l215 289h159l-270 -289h-104zM125 0v1057h129v-1057h-129z" />
<glyph unicode="&#xee;" horiz-adv-x="378" d="M-115 1204l234 289h141l234 -289h-134l-176 209l-180 -209h-119zM125 0v1057h129v-1057h-129z" />
<glyph unicode="&#xef;" horiz-adv-x="378" d="M-61 1239v207h139v-207h-139zM125 0v1057h129v-1057h-129zM301 1239v207h139v-207h-139z" />
<glyph unicode="&#xf0;" d="M70 510q0 224 126 370q134 156 343 156t288 -82h4q-95 179 -272 322l-215 -121l-68 66l205 114q-108 71 -190 113l74 72q134 -73 213 -131l233 131l68 -66l-224 -125q402 -327 402 -801q0 -242 -123 -395q-133 -164 -379 -164q-239 0 -367 157q-118 145 -118 384z M199 508q0 -290 197 -394q69 -36 162 -36t161.5 31.5t114.5 90.5q94 117 94 312q0 168 -84 284q-95 132 -279 132q-185 0 -281 -126q-85 -111 -85 -294z" />
<glyph unicode="&#xf1;" horiz-adv-x="1099" d="M121 0v1057h129v-183h4q37 96 131 155q93 58 205.5 58t187 -28.5t119.5 -80.5q82 -95 82 -298v-680h-129v659q0 320 -268 320q-150 0 -242 -103q-86 -97 -90 -260v-616h-129zM227 1245q8 77 55 135q52 62 127 62q45 0 82 -14q61 -24 113.5 -50t81.5 -26q77 0 106 98h78 q-22 -129 -106 -178q-31 -17 -72 -17q-80 0 -220 78q-30 17 -67 17t-67.5 -27t-30.5 -78h-80z" />
<glyph unicode="&#xf2;" d="M70 528q0 241 128 394q140 165 371 165q232 0 371 -165q129 -153 129 -394q0 -239 -129 -393q-138 -166 -371 -166q-232 0 -371 166q-128 154 -128 393zM199 528q0 -180 93 -308q103 -142 277 -142q175 0 278 142q93 128 93 308q0 181 -93 310q-103 141 -278 141 q-174 0 -277 -141q-93 -129 -93 -310zM318 1493h159l215 -289h-104z" />
<glyph unicode="&#xf3;" d="M70 528q0 241 128 394q140 165 371 165q232 0 371 -165q129 -153 129 -394q0 -239 -129 -393q-138 -166 -371 -166q-232 0 -371 166q-128 154 -128 393zM199 528q0 -180 93 -308q103 -142 277 -142q175 0 278 142q93 128 93 308q0 181 -93 310q-103 141 -278 141 q-174 0 -277 -141q-93 -129 -93 -310zM449 1204l215 289h159l-270 -289h-104z" />
<glyph unicode="&#xf4;" d="M70 528q0 241 128 394q140 165 371 165q232 0 371 -165q129 -153 129 -394q0 -239 -129 -393q-138 -166 -371 -166q-232 0 -371 166q-128 154 -128 393zM199 528q0 -180 93 -308q103 -142 277 -142q175 0 278 142q93 128 93 308q0 181 -93 310q-103 141 -278 141 q-174 0 -277 -141q-93 -129 -93 -310zM266 1204l234 289h141l234 -289h-134l-176 209l-180 -209h-119z" />
<glyph unicode="&#xf5;" d="M70 528q0 241 128 394q140 165 371 165q232 0 371 -165q129 -153 129 -394q0 -239 -129 -393q-138 -166 -371 -166q-232 0 -371 166q-128 154 -128 393zM199 528q0 -180 93 -308q103 -142 277 -142q175 0 278 142q93 128 93 308q0 181 -93 310q-103 141 -278 141 q-174 0 -277 -141q-93 -129 -93 -310zM248 1245q8 77 55 135q52 62 127 62q45 0 82 -14q61 -24 113.5 -50t81.5 -26q77 0 106 98h78q-22 -129 -106 -178q-31 -17 -72 -17q-80 0 -220 78q-30 17 -67 17t-67.5 -27t-30.5 -78h-80z" />
<glyph unicode="&#xf6;" d="M70 528q0 241 128 394q140 165 371 165q232 0 371 -165q129 -153 129 -394q0 -239 -129 -393q-138 -166 -371 -166q-232 0 -371 166q-128 154 -128 393zM199 528q0 -180 93 -308q103 -142 277 -142q175 0 278 142q93 128 93 308q0 181 -93 310q-103 141 -278 141 q-174 0 -277 -141q-93 -129 -93 -310zM320 1239v207h139v-207h-139zM682 1239v207h139v-207h-139z" />
<glyph unicode="&#xf7;" horiz-adv-x="1228" d="M100 461v108h1030v-108h-1030zM500 102q0 47 33.5 81t80.5 34t81 -33.5t34 -79t-33.5 -81t-80 -35.5t-81 33.5t-34.5 80.5zM500 928q0 47 33.5 80.5t80.5 33.5t81 -33.5t34 -78.5t-33.5 -81t-80 -36t-81 34t-34.5 81z" />
<glyph unicode="&#xf8;" d="M59 18l125 138q-114 148 -114 372q0 241 128 394q140 165 364.5 165t355.5 -139l106 115l45 -41l-111 -121q111 -157 111 -373q0 -239 -129 -393q-138 -166 -360.5 -166t-354.5 140l-121 -132zM199 528q0 -162 73 -276l559 604q-101 123 -262 123q-174 0 -277 -141 q-93 -129 -93 -310zM309 199q98 -121 260 -121q175 0 278 142q93 128 93 308q0 158 -72 275z" />
<glyph unicode="&#xf9;" horiz-adv-x="1099" d="M121 371v686h129v-688q4 -143 66.5 -217t215.5 -74q155 0 242 131q76 115 76 293v555h129v-1057h-119v190h-4q-51 -106 -148.5 -163.5t-215.5 -57.5q-199 0 -285 108.5t-86 293.5zM297 1493h159l215 -289h-104z" />
<glyph unicode="&#xfa;" horiz-adv-x="1099" d="M121 371v686h129v-688q4 -143 66.5 -217t215.5 -74q155 0 242 131q76 115 76 293v555h129v-1057h-119v190h-4q-51 -106 -148.5 -163.5t-215.5 -57.5q-199 0 -285 108.5t-86 293.5zM428 1204l215 289h159l-270 -289h-104z" />
<glyph unicode="&#xfb;" horiz-adv-x="1099" d="M121 371v686h129v-688q4 -143 66.5 -217t215.5 -74q155 0 242 131q76 115 76 293v555h129v-1057h-119v190h-4q-51 -106 -148.5 -163.5t-215.5 -57.5q-199 0 -285 108.5t-86 293.5zM245 1204l234 289h141l234 -289h-134l-176 209l-180 -209h-119z" />
<glyph unicode="&#xfc;" horiz-adv-x="1099" d="M121 371v686h129v-688q4 -143 66.5 -217t215.5 -74q155 0 242 131q76 115 76 293v555h129v-1057h-119v190h-4q-51 -106 -148.5 -163.5t-215.5 -57.5q-199 0 -285 108.5t-86 293.5zM299 1239v207h139v-207h-139zM661 1239v207h139v-207h-139z" />
<glyph unicode="&#xfd;" horiz-adv-x="948" d="M4 1057h137l348 -901l326 901h129l-459 -1219q-55 -138 -106 -181q-57 -48 -172 -48q-83 4 -98 10v109q63 -11 97 -11t61.5 12.5t48.5 34.5q25 26 65 119l45 121zM353 1204l215 289h159l-270 -289h-104z" />
<glyph unicode="&#xfe;" horiz-adv-x="1175" d="M123 -391v1853h129v-606h4q38 108 146 173q95 58 218.5 58t212.5 -45t148 -122q117 -151 117 -392q0 -239 -117 -392q-128 -167 -358 -167q-193 0 -309 131q-38 43 -58 101h-4v-592h-129zM252 528q0 -298 198 -410q70 -40 167.5 -40t163 40t107.5 104q81 122 81 306 q0 185 -81 308q-95 143 -265 143q-189 0 -288 -143q-83 -120 -83 -308z" />
<glyph unicode="&#xff;" horiz-adv-x="948" d="M4 1057h137l348 -901l326 901h129l-459 -1219q-55 -138 -106 -181q-57 -48 -172 -48q-83 4 -98 10v109q63 -11 97 -11t61.5 12.5t48.5 34.5q25 26 65 119l45 121zM224 1239v207h139v-207h-139zM586 1239v207h139v-207h-139z" />
<glyph unicode="&#x152;" horiz-adv-x="2199" d="M76 731q0 320 183 535q194 227 509 227q262 0 397 -152v121h971v-119h-831v-528h753v-119h-753v-577h837v-119h-977v143q-108 -125 -289 -163q-55 -11 -108 -11q-315 0 -509 227q-183 215 -183 535zM215 731q0 -272 143 -450q154 -193 410 -193q113 0 201 35t159 127 q32 40 37 112v680q0 94 -10 136q-34 88 -159 145q-114 51 -237.5 51t-227 -52t-173.5 -140q-143 -178 -143 -451z" />
<glyph unicode="&#x153;" horiz-adv-x="1820" d="M74 528q0 236 116 390q127 169 355 169q135 0 235.5 -63t141.5 -197h4q43 117 145.5 188.5t243.5 71.5q236 0 344 -150.5t108 -442.5h-786q0 -171 79 -286q90 -130 251 -130q253 0 325 262h129q-43 -178 -163.5 -274.5t-303.5 -96.5q-210 0 -323 153q-37 50 -53 116h-4 q-39 -135 -140.5 -202t-232.5 -67t-219 46t-144 123q-108 147 -108 390zM203 504q0 -283 183 -389q63 -37 158 -37t156.5 41t95.5 107q56 113 56 311q0 302 -154 403q-59 39 -157 39t-164 -43t-105 -112q-69 -121 -69 -320zM981 602h657q0 156 -84 264q-89 113 -243 113 q-157 0 -246 -113q-84 -108 -84 -264z" />
<glyph unicode="&#x178;" horiz-adv-x="1251" d="M-20 1462h165l482 -741l479 741h166l-578 -860v-602h-139v602zM375 1614v207h139v-207h-139zM737 1614v207h139v-207h-139z" />
<glyph unicode="&#x2c6;" horiz-adv-x="378" d="M-115 1204l234 289h141l234 -289h-134l-176 209l-180 -209h-119z" />
<glyph unicode="&#x2dc;" horiz-adv-x="378" d="M-133 1245q8 77 55 135q52 62 127 62q45 0 82 -14q61 -24 113.5 -50t81.5 -26q77 0 106 98h78q-22 -129 -106 -178q-31 -17 -72 -17q-80 0 -220 78q-30 17 -67 17t-67.5 -27t-30.5 -78h-80z" />
<glyph unicode="&#x2000;" horiz-adv-x="990" />
<glyph unicode="&#x2001;" horiz-adv-x="1981" />
<glyph unicode="&#x2002;" horiz-adv-x="990" />
<glyph unicode="&#x2003;" horiz-adv-x="1981" />
<glyph unicode="&#x2004;" horiz-adv-x="660" />
<glyph unicode="&#x2005;" horiz-adv-x="495" />
<glyph unicode="&#x2006;" horiz-adv-x="330" />
<glyph unicode="&#x2007;" horiz-adv-x="330" />
<glyph unicode="&#x2008;" horiz-adv-x="247" />
<glyph unicode="&#x2009;" horiz-adv-x="396" />
<glyph unicode="&#x200a;" horiz-adv-x="110" />
<glyph unicode="&#x2010;" horiz-adv-x="757" d="M123 504v119h512v-119h-512z" />
<glyph unicode="&#x2011;" horiz-adv-x="757" d="M123 504v119h512v-119h-512z" />
<glyph unicode="&#x2012;" horiz-adv-x="757" d="M123 504v119h512v-119h-512z" />
<glyph unicode="&#x2013;" horiz-adv-x="1024" d="M0 504v119h1024v-119h-1024z" />
<glyph unicode="&#x2014;" horiz-adv-x="2048" d="M0 504v119h2048v-119h-2048z" />
<glyph unicode="&#x2018;" horiz-adv-x="569" d="M195 965v219q0 153 101 238q34 28 81 40v-88q-47 -14 -76 -80q-25 -57 -20 -112h86v-217h-172z" />
<glyph unicode="&#x2019;" horiz-adv-x="569" d="M193 965v88q47 17 75 81q26 55 21 111h-86v217h172v-219q0 -151 -101 -237q-34 -29 -81 -41z" />
<glyph unicode="&#x201a;" horiz-adv-x="569" d="M193 -193q44 13 75 81q26 56 21 112h-86v217h172v-219q0 -151 -101 -238q-34 -28 -81 -41v88z" />
<glyph unicode="&#x201c;" horiz-adv-x="757" d="M131 965v219q0 151 101 238q34 28 81 40v-88q-45 -13 -75 -80q-26 -56 -21 -112h86v-217h-172zM446 965v219q0 152 102 238q34 28 81 40v-88q-47 -14 -76 -80q-25 -59 -21 -112h86v-217h-172z" />
<glyph unicode="&#x201d;" horiz-adv-x="757" d="M129 965v88q75 28 93 138q5 30 3 54h-86v217h172v-219q0 -153 -101 -237q-34 -29 -81 -41zM444 965v88q73 27 94 138q5 30 3 54h-86v217h172v-219q0 -151 -101 -237q-34 -29 -82 -41z" />
<glyph unicode="&#x201e;" horiz-adv-x="757" d="M129 -193q46 14 76 81q24 57 20 112h-86v217h172v-219q0 -153 -101 -238q-34 -28 -81 -41v88zM444 -193q46 14 76 81q25 58 21 112h-86v217h172v-219q0 -151 -101 -238q-34 -28 -82 -41v88z" />
<glyph unicode="&#x2022;" horiz-adv-x="1024" d="M147 731q0 151 107 258t258 107q150 0 259 -107q108 -106 108 -258q0 -151 -108 -259q-107 -107 -259 -107q-153 0 -258 107q-107 109 -107 259z" />
<glyph unicode="&#x2026;" horiz-adv-x="2048" d="M256 0v217h172v-217h-172zM938 0v217h172v-217h-172zM1620 0v217h172v-217h-172z" />
<glyph unicode="&#x202f;" horiz-adv-x="396" />
<glyph unicode="&#x2039;" horiz-adv-x="530" d="M109 500v127l272 256v-138l-193 -182l193 -182v-137z" />
<glyph unicode="&#x203a;" horiz-adv-x="530" d="M150 244v137l192 182l-192 182v138l272 -256v-127z" />
<glyph unicode="&#x205f;" horiz-adv-x="495" />
<glyph unicode="&#x2122;" horiz-adv-x="2027" d="M168 1370v92h657v-92h-274v-752h-109v752h-274zM975 618v844h174l272 -684l265 684h174v-844h-109v746h-4l-299 -746h-62l-299 746h-4v-746h-108z" />
<glyph unicode="&#xe000;" horiz-adv-x="1054" d="M0 0v1055h1055v-1055h-1055z" />
</font>
</defs>
</svg>
