<?xml version="1.0" standalone="no"?>
<!DOCTYPE svg PUBLIC "-//W3C//DTD SVG 1.1//EN" "http://www.w3.org/Graphics/SVG/1.1/DTD/svg11.dtd" >
<svg xmlns="http://www.w3.org/2000/svg">
<metadata></metadata>
<defs>
<font id="downcomeregular" horiz-adv-x="862" >
<font-face units-per-em="2048" ascent="1638" descent="-410" />
<missing-glyph horiz-adv-x="442" />
<glyph horiz-adv-x="0" />
<glyph unicode="&#xd;" horiz-adv-x="2048" />
<glyph unicode=" "  horiz-adv-x="442" />
<glyph unicode="&#x09;" horiz-adv-x="442" />
<glyph unicode="&#xa0;" horiz-adv-x="442" />
<glyph unicode="!" horiz-adv-x="423" d="M491 1671q-10 -4 -27 -14q0 6 -6.5 20t-6.5 20q18 0 40 -26zM363 1532q-37 -16 -50 -16q-7 0 -22 -5t-22 -5q10 18 43 21q17 1 51 5zM265 1512l-14 -21l-8 6l14 21zM84 1117l-7 -27h-10l7 27h10zM49 1078h-11v51h11v-51zM321 1337q0 -59 -17 -81q11 -5 11 -21 q0 -27 -14 -41q-3 9 -12 24q-2 -3 -2 -15q0 -6 11.5 -20.5t11.5 -20.5q0 -24 -35 -71v-39q4 -2 14 -10q18 40 18 88q1 -5 1 -12q0 -14 -3 -44q-3 -36 -3 -58q0 -17 -6 -223q-5 -10 -21 -18q17 -29 17 -69q0 -34 -5.5 -102.5t-5.5 -102.5q0 -53 10 -67h-108q-11 10 -14 11 q-7 0 -16.5 -5.5t-11.5 -5.5q-4 24 -4 122q1 -22 36 -70q16 17 16 34q0 4 -6 45v0q-5 18 -6 19v0q12 24 11 62v8v29q-1 15 -1 22q0 26 6 36q0 14 -12 14q-5 0 -5 -2v0v-1q-1 -2 -7 -2q-5 0 -12.5 10.5t-12.5 12.5q-21 -27 -30 -123q-8 -99 -31 -133q-8 -33 -28 -104l-27 161 l-15 -11q0 11 4.5 36t4.5 37l-1 5q-3 83 -3 76q0 112 26 252q0 -13 16 -21q6 18 6 53h30q8 0 15 15v23q-8 5 -22 15q-6 0 -24 -17q6 14 6 25q0 4 -1 8q11 6 20 6t17 -5q1 25 1 50q0 181 -20 353q15 0 25.5 12.5t12.5 12.5q4 0 5 -2l-2 -4l-2 -4q1 -2 4 -2q7 0 15.5 5.5 t13.5 5.5l19 18q0 -18 12 -29l17 17q0 -6 5 -11q11 10 14 11q0 -17 -28 -31q25 -4 54 -4q32 0 68 5v-137zM319 4h-216v224h216v-224zM195 1441v22h-10v-22h10zM310 1232q-29 14 -34 14q0 -4 -3 -13.5t-3 -13.5v0q2 4 15 17q5 0 13 -2t12 -2zM283 1009l-8 5l-14 -20l8 -6z M263 765q-6 0 -12 5q6 5 6 13q-24 0 -35 6q0 6 5 8h19q-25 7 -25 13l-16 -3v-143q15 -20 38 -49q5 24 5 78q0 46 15 72zM137 802q-3 -1 -25 -1v-22q10 6 25 23zM122 759q0 1 -2 2q-9 6 -38 6q-21 0 -23 -28q14 -4 31 -19zM104 605v21q-23 -7 -57 -7q37 -19 39 -22h-1 q13 0 19 8z" />
<glyph unicode="&#x22;" horiz-adv-x="667" d="M590 1493l-17 -7v8l14 8zM567 1452l-18 -7v8l14 7zM563 1743l-26 -219l13 -21l-8 -5l-7 11l-30 -251h-92l-60 485h210zM340 1493l-17 -7v8l14 8zM348 1478l-14 -21l-8 5l14 21zM317 1452l-18 -7v8l14 7zM313 1743l-26 -219l13 -21l-8 -5l-7 11l-30 -251h-92l-60 485h210z M91 1486l-6 -6l-15 15l6 6zM98 1456l-8 -16l-8 4l7 15zM44 1485l-8 -16l-8 4l8 15zM68 1450l-8 -16l-8 4l7 15zM538 1536v16h-10v-16h10zM389 1633l-8 3l-8 -16l9 -3zM521 1459l-7 34h-10l6 -34h11zM288 1536v16h-10v-16h10zM217 1563h-9l-7 -19l8 -4zM139 1633l-8 3l-8 -16 l9 -3zM271 1459l-7 34h-10l6 -34h11zM217 1469h-10l-7 -27h10z" />
<glyph unicode="#" horiz-adv-x="1429" d="M1058 796l-6 -6l-14 15l5 6zM181 1474l-14 -27l-8 3l13 27zM151 1433l-7 -15l-8 3l7 15zM1326 1054h-1q-14 -116 -24 -168h-116q-3 2 -7 3q1 2 1 4q-1 3 -2 4q-4 -5 -4 -11h-46q-4 2 -8 3q1 2 1 4q-1 3 -2 4q-16 -16 -32 -58q-9 17 -15 29q-4 -3 -4 -23l-4 5.5t-12 5.5 q-15 0 -36 -10q0 -9 24 -15q-19 -37 -35 -48q3 -2 5 -2q5 0 11 5q0 -18 7 -18q6 0 13.5 2.5t9.5 2.5l1 -23v-1q0 -4 -4 -5t-4 -3l-6 -54q-4 -40 -16 -57q2 -5 10 -14h224v-23q0 5 0 -30v-15v-2v-5v1l-8 -6q-5 -47 -5 -60q0 -19 6 -34h-82h-75l-60 -1q-17 0 -30 17 q-7 -7 -7 -13q0 -4 4 -8h-7h-2v0q-19 0 -26 -5q9 -10 34 -10q0 -8 -3.5 -23t-3.5 -23q-3 12 -12 35q-12 -26 -18 -40q-9 14 -12 23q-3 -3 -3 -15q0 -7 11 -16.5t19 -18.5q-38 -61 -38 -84q0 -6 2 -11q-34 -8 -52 -10q14 -14 17 -15q8 0 22.5 -3t21.5 -3q8 0 11.5 5.5 t5.5 5.5l-4 -30q-2 -16 -16 -20q0 -5 6 -12t6 -13q0 -25 -12 -64q-14 -47 -32 -47q-11 1 -34 3q-13 1 -19 1t-8 -1q14 -14 17 -15q11 0 32 2.5t32 2.5v-33h-198v27q23 8 35 10q-29 6 -29 17q0 6 13 73q14 72 17 106q11 -6 21 -6q7 0 13 3q-23 9 -35 12q9 39 13 72 q20 0 25 -5q10 7 14 9l-6 10q-5 7 -8 10l-19 -17l16 113q-3 4 -32 4h-68q-14 0 -49 23q-42 -28 -42 -45v0v-1q-18 0 -43 -71q-9 18 -15 29q-9 -14 -13 -23v28q15 0 22 15l-9 10q-21 -22 -31 -28q-14 -63 -25 -182q-7 -1 -42 -1l-10 -9q14 -16 35 -16q6 0 11 1 q-17 -107 -23 -162q-6 -6 -198 -6q15 113 24 174q7 -6 17 -6q3 16 3 23q0 5 -1 7l-12 -12q-2 5 -2 10q0 26 30 58v4q0 19 34 65l-9 9q-18 -39 -42 -70q14 75 22 115v67l-176 1q12 19 12 36l-19 -1h3h3h-6q0 -42 -10 -42q-26 0 -41 7q15 116 24 168q43 0 201 -6h-3 q15 0 25 13q14 17 20 21q37 185 37 222v15q-42 16 -61 16q-5 0 -5 -3v-3q-2 -2 -4 -5h-169q12 44 23 162q7 7 235 7q20 68 23 105q19 0 22 3q-2 -1 -4 -1q-7 0 -7 8v1v1l3 59l39 239h74q0 -5 -2.5 -15t-2.5 -15q6 -3 14 -10l15 14q-17 17 -17 26h46q0 -20 5 -29q2 0 9 7 t10 9q-11 10 -15 12h55q0 -8 -3.5 -24.5t-3.5 -25.5q-5 6 -11 6v0q2 -4 7 -30l-53 -330q11 -11 29 -11q-1 -4 -1 -8q0 -9 5 -20q8 17 10 29h181q17 55 18 73q25 25 35 42v2q0 6 9 6q0 -2 1 -2q5 5 6 8q-2 4 -9 4q-4 0 -8 -3q13 16 23.5 72t22.5 70q-5 5 -11 5q18 87 24 138 h192v-43l-53 -320l21 -5q3 1 5 1q3 0 3 -3q-1 -4 -10 -9v-2q1 -4 5 -4q11 0 11 -13q2 -6 13 -6v3q0 11 10 21q-2 -4 -2 -10q0 -10 7 -25q9 0 9 18q19 -20 71 -20q76 0 80 1zM982 311l-18 -68h-9l18 68h9zM1075 1196l-16 8l-3 -9l15 -7zM1117 1080l-7 17l-9 -4l7 -13h9z M1181 1019h-8l-7 -19l8 -4zM1050 1183q-1 0 -6 -5.5t-14 -5.5q-7 0 -24 18q0 -26 -12 -58l17 17q5 -4 5 -12q0 -10 -18 -27q5 0 14.5 2.5t13.5 2.5v39q-11 0 -11 7h29q0 3 3 11t3 11zM1106 1056v22h-10v-22h10zM1017 1083l-32 32l-6 -6l32 -32zM655 1396v33h-10v-33h10z M637 1407v22h-10v-22h10zM611 1396q-10 21 -22 21q3 -6 3 -14q0 -9 -3 -19q3 0 11.5 6t10.5 6zM585 1396v21h-11v-21h11zM915 936v9l-27 7v-10zM850 933q0 28 -9 78q9 9 9 38q-4 -9 -18 -45q-11 -30 -27 -34q32 0 35 -1v-5v-2q0 -24 10 -38v6v3zM988 820h-8l-7 -19l8 -4z M969 824q-8 4 -21 15q-14 -14 -26 -15h47zM760 1009v16h-10v-16h10zM971 814h-9l-7 -19l8 -4zM1040 715l-4 9l-14 -7v-9zM538 1203v21h-10v-21h10zM725 1015v22h-10v-22h10zM1186 564l-23 7v-8l20 -7zM706 1031l-3 9l-20 -7v-9zM930 793l-8 17l-8 -3l7 -14h9zM793 928 l-16 16q0 -6 -7 -16h23zM972 736q-3 -4 -26 -4q10 -8 16 -10q0 3 5 7t5 7zM485 1191v21h-10v-21h10zM939 730l-16 43h-9l16 -46zM1143 529q0 3 -3 11.5t-3 11.5q-27 -14 -27 -28q3 -1 8 -1q8 0 25 6zM956 707v11l-39 6v-10zM1014 617v28q-5 -10 -22 -33q4 0 11.5 2.5 t10.5 2.5zM1029 594l-7 23l-8 -3l6 -20h9zM1121 497q-24 14 -24 58q0 10 1 20q-12 -44 -22 -70q-16 16 -19 17q0 -21 -6 -27q7 1 12 1q13 0 17 -6q0 -6 -6 -12q2 -1 5 -1q22 0 42 20zM547 1089q-29 -18 -43 -28q-24 25 -27 26q11 6 11 17q-3 11 -26 51q0 -67 1 -73 q-1 -2 -3 -2v0l-2 1v0q-4 -2 -4 -8q0 -11 33 -41q0 12 14 12q31 21 46 45zM997 529v28q-16 0 -16 -21q6 -6 16 -7zM506 1025h-22l-6 -15h22q0 5 6 15zM881 884q-49 36 -68 54q-16 -16 -26 -20l16 -15q0 18 15 18l10 -9q-13 -15 -16 -27q-162 0 -165 3q40 52 55 84 q-27 -5 -33 -5q-17 31 -28 43q40 0 42 1h-1q-47 15 -59 15q-8 0 -10.5 6t-5.5 11v-21q11 -8 17 -10q-12 -6 -22 -6q-4 0 -7 1l17 -17q-4 -2 -9 -2q-7 0 -16 3q-15 4 -21 5q0 -3 -3 -12.5t-3 -15.5v0q2 4 14 17q22 -8 32 -10q0 -9 -4 -14q-1 0 -2.5 -7t-7.5 -10 q-12 12 -12 29q-2 -6 -2 -12q0 -18 28 -44q-9 -28 -41 -38v-80q16 -8 24 -27q-2 -1 -3 -1q-2 0 -3.5 4.5t-8.5 4.5q-25 0 -25 -23q5 4 7 5q3 -1 3 -7q-19 -20 -22 -21v0q35 15 41 29l5 -21q-12 -70 -12 -104q6 -16 6 -20v-1q81 0 142 -3q22 -36 31 -56q0 12 5 12q6 0 6 -2 v-1v-1q1 -2 6 -2q9 0 34.5 10t35.5 10q-10 0 -27.5 4.5t-25.5 4.5q-5 0 -5 -4v-4q-1 -4 -6 -4q-13 0 -33 10v16q4 5 24 5h12q-5 -4 -5 -9v-1v-2q32 17 56 17h6q17 179 48 267zM959 524v15h-10v-15h10zM854 611v28h-10v-28h10zM982 448v21h-10v-21h10zM1010 490 q-14 14 -14 21q-17 -18 -24 -18q-11 0 -32.5 1.5t-32.5 1.5v0q2 -4 15 -17l-9 -9q-14 15 -14 23q0 23 47 54q-7 -7 -18 -7q-8 0 -9.5 7t-2.5 8l32 15q5 -6 6 -12q3 7 3 13t-8.5 16.5t-8.5 20.5q0 13 34 65q-4 0 -11.5 -5t-14.5 -5q-5 1 -16 10v25q-4 -17 -24 -41 q-2 13 -15 38v0q3 -2 22 -2v46q-34 -32 -34 -50q0 -7 4.5 -14.5t4.5 -8.5q0 9 5 15q2 -11 6 -27q26 -19 27 -22q-45 -45 -53 -45h2q-6 3 -20 4q-7 0 -7 -6q1 -5 3 -9q14 -2 40 -11v-26q-2 -1 -3 -1q-2 0 -3.5 4t-8.5 4q-17 0 -17 15q0 -12 -18 -12q6 -2 15 -11h-29 q16 -16 23 -29q-5 -8 -15 -21q-14 1 -38 7q24 -10 41 -10q15 0 25 8v-40q16 0 28 -15q-12 -26 -41 -75v-44q6 0 16 -7q0 14 7 42.5t7 40.5q12 8 37 54q21 39 44 39q7 0 12.5 -6t10.5 -6q9 0 24 14zM532 914h-9l-7 -20l8 -3zM851 567v10h-28v-10h28zM546 822q0 15 -7 23 q-8 -11 -9 -16q11 -6 16 -7zM969 408q-4 0 -12.5 2t-12.5 2q-14 -14 -15 -17v0q0 4 3 13.5t3 13.5q5 0 34 -14zM763 591v10h-16v-10h16zM810 526v10h-16v-10h16zM819 520l-9 3l-7 -15l8 -3zM705 597v10h-16v-10h16zM871 412v16h-10v-16h10zM763 515v10h-16v-10h16zM734 542 q-13 38 -13 57q-33 -15 -57 -20q19 -1 53 -24q-5 -8 -5 -12v-1h22zM923 345l-14 15l-6 -6l14 -14zM824 430l-7 17l-8 -3l7 -14h8zM866 405h-10l-7 -28h10zM764 494q-27 -6 -35 -6t-11 7.5t-5 9.5v-22q20 0 51 11zM746 525l-19 3q-23 12 -23 24q-18 -18 -28 -18q-5 0 -15 2.5 t-13 2.5q0 -13 -13 -17h13q14 0 41 1q42 2 57 2zM514 731l-8 3l-10 -21l8 -4zM565 720h-23q0 -25 -9 -33q-6 5 -12 5q-7 0 -9 -3q-1 -7 -3 -8q0 8 -13 23q0 -23 -13 -45q12 0 20 -7q4 0 24.5 9t29.5 9v0h2q-4 8 -4 17q0 15 10 33zM708 510h-10l-7 -27h10zM860 279l-8 5 l-14 -20l8 -6zM942 185l-8 5l-14 -20l8 -6zM868 234v10h-15v-10h15zM524 596q-18 18 -29 24q9 9 9 16q0 5 -5 9h1q-4 -2 -29 -2h5h1q13 0 18 -6q-11 -19 -15 -27l-13 12q24 -48 24 -64q6 7 20 7q0 18 13 31zM822 222v10h-16v-10h16zM553 408l-7 32q-2 0 -10.5 -6t-11.5 -6 q7 -13 7 -33q9 0 22 13zM786 161q0 5 -6 16q-5 0 -16 -8q8 -8 22 -8zM842 85v15h-10v-15h10zM835 49l-16 7l-3 -8l15 -7zM786 29v10h-15v-10h15zM275 533h-10l-7 -27h10zM222 508l-9 3l-7 -15l8 -3zM453 169v10h-22v-10h22zM442 193q-48 -10 -64 -10q-9 0 -15 10 q-9 11 -13 13q0 -5 4 -14q-13 -13 -16 -14q-1 0 -1 1q15 -7 32 -7q9 0 73 21zM381 110q-3 -4 -20 -4q8 -16 8 -28q0 -3 -1 -6q13 26 13 38zM842 886h-10v16h10v-16zM658 990q0 -6 -3 -15.5t-3 -12.5q-11 0 -20 17q-3 -11 -12 -29v1q0 7 5 46q7 -7 33 -7zM1105 509l-7 -5 l-14 14l6 6zM658 931q-6 -6 -25 -45q-10 9 -10 17q0 21 35 28zM602 851h-10v16h10v-16zM596 816h-10v22h10v-22zM893 492q-8 -11 -22 -28v28h22z" />
<glyph unicode="$" horiz-adv-x="897" d="M547 1236q-11 -7 -17 -7l2 6q0 11 -20 20q4 0 14 4t14 4zM576 1197h-28v10h28v-10zM577 1152l-4 -8l-14 7l3 9zM538 1184q-13 0 -66 -26v22q7 9 21 24q0 -17 16 -17q5 0 8 -1q10 0 10 5q-1 5 -9 12q3 0 11 -9.5t9 -9.5zM637 931h-9l-7 19l9 3zM384 1199l-33 -20l-3 9 l32 19zM500 1127q-22 -19 -22 -30q0 -13 16 -31q-5 0 -15 10h-15q-5 -9 -5 -28v-12q-16 0 -22 7v50h2q13 -1 32 14q26 19 29 20zM614 952l-6 -33h-11l7 33h10zM590 952l-7 -23l-9 3l8 20h8zM403 1024h-10v22h10v-22zM459 937q-11 -6 -16 -6l7 34q9 -10 9 -28zM893 1277 q-40 -22 -101 -59q-15 -9 -33 -23q-42 -85 -42 -107q0 -7 14.5 -33.5t14.5 -31.5q0 -21 -62 -81q-65 -62 -69 -77l-13 12q-30 -9 -55 -33v-16q65 -50 152 -148q-70 -2 -100 -18v-20q11 -3 18 -3q22 0 22 10h-1q6 0 6 -4v-4q0 -4 6 -4q11 0 11 9q0 -15 6 -21q5 6 5 12 q1 -6 6 -12q6 6 6 12q-2 -4 -2 -7q0 -5 9 -5q5 0 5 9q0 -15 15 -15q6 0 6 2v1v1q1 2 6 2q7 -5 26 -36q44 -71 44 -204q0 -147 -50 -227q-67 -108 -243 -152v-205h-116v205q-215 54 -281 201l149 126q26 -34 81 -101q36 -40 100 -40q72 0 114 57q39 51 39 125q0 23 -4 59 q-6 47 -7 60q6 2 31 2q-15 -10 -24 -14v-1q0 -3 3 -7h24q8 0 24 12q21 15 31 21q-10 15 -14 26q-12 -12 -18 -12q-5 0 -5 4v4q0 4 -7 4h1q-7 -4 -48 -18q-32 41 -103 118q-21 20 -75 68q5 0 9.5 6.5t11.5 6.5q6 0 7 -3l-1 -2t-1 -4v-3q9 9 9 15q0 16 -14 32q2 6 2 14 q0 12 -4 28q-14 -1 -22 -30q-3 -12 -5 -41q-1 6 -6 12q-19 -12 -32 -17q1 1 1 3q0 15 -46 58q-73 69 -82 80q-84 98 -95 188q-7 60 -7 100q0 214 136 299q76 38 126 60q2 21 2 141h116v-41q0 -45 1 -100q180 -54 245 -154q-75 -77 -137 -132q-67 72 -101 92q-13 8 -54 8 q-126 0 -129 -145q-6 -5 -6 -22q0 -100 91 -202q4 5 4 23q7 -6 21 -6q1 -6 1 -12q0 -19 -6 -25q59 -47 91 -79q24 19 34 32q33 17 96 52q72 43 72 88q0 8 -12 36t-12 37q0 2 21.5 43t21.5 66q0 4 -1 7q59 33 151 94q-6 -6 -6 -12q0 -7 7 -14zM437 514l-15 -11l-5 8l15 11z M233 495l-7 -22l-9 3l8 19h8zM-74 729h-27v10h27v-10zM79 502l-22 -7v8l19 7zM45 497l-4 -8l-15 7l3 8zM341 713q-17 -36 -63 -62t-62 -53q-7 -1 -21 -4q-22 -16 -56 -61q-4 -29 -22 -87q-31 -11 -65 -48q-46 -50 -68 -67q-13 -11 -42 -55q-19 -12 -47 -46q-20 -8 -44 -40 q16 -13 40 -43q-12 4 -17 4q-7 0 -10.5 -5.5t-4.5 -5.5l-37 29q-9 0 -26.5 -5t-26.5 -5q23 13 47 26q32 22 32 45q0 7 -3 14v0q2 -4 14 -17q8 19 60 52q46 29 51 62q27 13 64 64q10 7 47 32t37 45q-1 6 -1 13q0 17 5 41q29 42 102 89q87 56 117 88zM-71 217h-10v21h10v-21z M746 581q-13 14 -16 15q-5 -6 -5 -17q0 -7 2 -17zM606 722q-6 2 -20.5 13.5t-19.5 11.5v-40q6 6 25 6q14 0 15 9zM707 574v15h-10v-15h10zM590 679l-7 17l-9 -3l8 -14h8zM552 708v33l-12 4q-13 3 -27 3q-1 -7 -12 -21t-11 -19h62zM596 646l-8 3l-8 -15l8 -3zM582 656 q-2 4 -14 16q-5 -3 -11 -14.5t-12 -14.5q-6 5 -6 23l-15 -34q2 0 8.5 2.5t11.5 2.5q11 0 17 -35q6 5 7.5 25t13.5 29zM472 713l-4 8l-13 -7v-9zM514 626v22h-10v-22h10zM492 663q0 -5 -15 -5l12 -33q3 11 3 38z" />
<glyph unicode="%" horiz-adv-x="1201" d="M1091 615q-22 4 -46 44q10 0 20 10q-9 -9 -9 -16q3 -2 6 -2q2 0 5.5 2.5t3.5 6.5zM869 650q-9 0 -21 -13q0 22 6 35q15 -14 15 -22zM52 1471l-13 -27l-9 4l14 26zM23 1431l-8 -16l-8 4l7 14zM459 854h-83l-10 -9q2 -2 2 -6v-3q0 -5 14 -6v0h1q10 -2 18 -6q-3 -1 -5 -1 q-3 0 -14 7v-41q3 4 3 23q3 -6 15 -40h4q4 8 4 40q22 0 22 -14t-55 -56l-12 12q-3 -3 -3 -22q-52 -13 -76 -13q-10 0 -30 6t-31 6h-18q-34 0 -71 66q-31 56 -31 78v449q0 68 55 118t123 50q44 0 105 -37q73 -44 73 -100v-501zM980 1467l-627 -1467h-133l308 713 q0 -8 3 -23.5t3 -22.5q-5 5 -9 5t-7 -3q15 -16 30 -33q2 1 5 4q-8 7 -8 29q7 -11 16 -28q-2 2 -4 2q-4 -1 -4 -9q5 -9 32 -50q9 18 9 33q0 -2 -22 49q4 -6 14 -17q11 11 18 11l11 -11v-1h1q1 0 1.5 2t0.5 8q0 4 -12 16.5t-16 21.5q-10 0 -10 -15q-1 5 -12 15q-1 -9 -7 -24 q0 1 -6.5 10.5t-6.5 16.5v31q18 -8 25 -23v3q0 21 14 66q2 4 2 9q-4 6 -17 6q-5 0 -12 -1l293 677h127zM1097 130q0 -65 -65 -112q-58 -42 -113 -42q-80 0 -132 55t-52 136v146q14 14 29 14q7 -5 44 -23q4 4 4 8q0 5 -4 9q-8 -5 -14 -5v16q40 12 69 47v-237q0 -49 56 -49 q50 0 50 33v472q0 13 -39 41v5q0 8 2 23.5t2 23.5q-15 2 -49 11q-14 -29 -16 -31q-1 0 -1 1q-15 7 -35 18q-6 -65 -25 -65q-8 0 -13 20q-6 27 -10 33l-17 -70q-15 30 -16 35q0 49 78 81q58 24 92 24q32 0 50 -9q5 -20 20 -28q-1 -2 -6 -11t-12 -9v-8h13q11 -2 26 -19t21 -20 t6 -10q0 -4 -3 -11q16 -6 46 -33q11 10 14 11v-471zM865 474q0 -28 -11 -62q-19 -62 -55 -62q-15 0 -32.5 12l-17.5 12q-7 0 -9.5 -2.5t-3.5 -2.5q0 151 5 200q1 10 2 15v0q5 -8 5 -25q14 -39 25 -39q6 0 12 -3t11 -3t5 12q15 -14 42 -47q11 9 18 24q4 -13 4 -29zM448 828 q-1 -5 -8 -15q-32 16 -33 19v0l15 16q10 -6 26 -20zM338 948v-1q-1 22 -1 155q0 149 -8 235q-3 38 -48 38q-48 0 -49 -50l-6 -284v-30q0 -98 13 -161q5 -20 42 -20q49 0 57 118zM357 859h-11l-6 -51h10zM237 814q0 12 -15 28v-11v-7q0 -1 1 -14q0 5 10 4h4zM204 781l-8 3 l-8 -15l9 -4z" />
<glyph unicode="&#x26;" horiz-adv-x="1120" d="M936 1486h-9l-7 14l9 3zM953 1469h-8l-3 6v-12h-10v16h8l-2 4l8 3zM919 1457h-10l-7 27h10zM953 1393h-8l-7 14l8 3zM842 1498h-10v16h10v-16zM862 1468q-4 4 -9 6q-4 -3 -4 -9q0 21 -2 37q8 -8 15 -11v-23zM924 1369h-8l-7 20l8 3zM854 1434l-15 -14l-6 6l14 14z M861 1395q-5 -6 -5 -21q-2 6 -7 12q-10 -10 -20 -16q4 4 6 10l-9 6h11v15q0 -5 6 -15q7 2 18 9zM916 657q0 -80 -122 -360q1 -24 116 -89v-213q-14 -4 -29 -20l-1 1h1l1 18q-20 8 -97 34l-20 -17v2q0 12 5 18q-58 46 -96 85q-70 -64 -116 -87q-60 -30 -142 -30 q-153 0 -235 96q-78 90 -78 246q0 121 44 217q26 55 82 127q44 56 44 75q0 5 -17 44q-20 43 -23 51q-66 197 -66 306q0 155 81 246q85 96 238 96q5 -2 13 -6q15 -2 42 -8q85 -24 128 -111q37 -74 37 -171q0 -122 -65 -245q-21 -40 -140 -214q1 -30 161 -281q35 27 74 251 q88 -25 180 -41v-20zM614 620h-10v28h10v-28zM1016 84q-30 -15 -44 -15l-37 19v27q22 7 20 7q7 0 30.5 -17.5t30.5 -20.5zM442 1349v10h-16v-10h16zM433 1334l-8 17l-8 -3l7 -14h9zM519 1242q0 15 -9 58q-9 14 -10 26q-5 -8 -17 -19q7 -8 7 -14q0 -17 -10 -36q-4 6 -6 11 q5 -21 13 -52v0q0 12 5 12q19 0 19 -35q0 -4 -1 -6q9 48 9 55zM503 1182v16h-10v-16h10zM412 1345q-61 -34 -61 -182q14 65 14 77q10 -11 10 -21q0 15 12 26q5 -5 6 -11q0 12 6 17q5 -5 6 -11q0 13 3.5 40t3.5 40v25zM512 1127q-9 0 -27 19v-53q-10 10 -10 24l-18 -18 q-5 6 -6 12q0 -24 9 -31q-7 1 -15 10q0 -17 -20 -17q25 -3 25 -27q-5 6 -5 12q0 -12 -5 -17q-5 4 -5 17v0l-18 -23q-6 12 -6 22q0 6 2 11q-6 0 -12 5q8 2 16 13l9 16q-2 -2 -4 -3q-12 15 -30 47q2 -8 2 -17q0 -6 -1 -12l-2 1q-5 -2 -10 -7q-2 5 -9 14q5 5 10 15 q-6 -3 -17 -12q4 9 5 17v1h-1q-6 -6 -13 -7l-1 12v-37q0 -28 61 -179q24 33 96 192zM395 485v27q-9 16 -26 49l-37 -75q31 10 29 10q6 0 17 -5.5t17 -5.5zM537 267q0 16 -50 83q-5 -4 -10 -4t-9 4q-8 -43 -60 -43q21 -27 66 -80q10 3 62 36v3zM354 374q-13 29 -31 75 q-15 -14 -15 -39q17 -15 46 -36zM325 331q0 1 -21 19v-1q0 -27 7 -34q10 9 14 16zM427 1026l-8 -15l-8 3l7 15zM444 983h-8l-7 14l8 3z" />
<glyph unicode="'" horiz-adv-x="417" d="M340 1493l-17 -7v8l14 8zM348 1478l-14 -21l-8 5l14 21zM317 1452l-18 -7v8l14 7zM313 1743l-26 -219l13 -21l-8 -5l-7 11l-30 -251h-92l-60 485h210zM91 1486l-6 -6l-15 15l6 6zM98 1456l-8 -16l-8 4l7 15zM44 1485l-8 -16l-8 4l8 15zM68 1450l-8 -16l-8 4l7 15z M288 1536v16h-10v-16h10zM217 1563h-9l-7 -19l8 -4zM139 1633l-8 3l-8 -16l9 -3zM271 1459l-7 34h-10l6 -34h11zM217 1469h-10l-7 -27h10z" />
<glyph unicode="(" horiz-adv-x="630" d="M724 1777h-10v15h10v-15zM735 1757l-7 -15l-8 4l7 14zM722 1768q-2 0 -12.5 -7t-13.5 -7q-7 7 -18 7q9 16 27 24l-10 13q8 -12 27 -30zM533 1637l-14 -11l-5 8l14 10zM603 1317l-32 13q3 4 19 4q5 14 13 27v-44zM30 1161h-10v21h10v-21zM494 665l-18 -32l-8 4l18 31z M30 1081l-6 -54h-10l6 54h10zM526 -42q-81 -39 -138 -75q-61 85 -225 449q0 -4 -4 -12t-4 -9q1 -4 7 -4q-1 -1 -2 -1q-3 0 -6 3q-7 -6 -7 -12q0 -4 4 -8q-6 -6 -12 -6q-5 0 -10 5q2 5 11 14q0 15 -3 18q-2 -2 -4 -2q-5 0 -13 8q-13 -13 -15 -28q-5 2 -16 17.5t-11 21.5 q0 7 3.5 14t3.5 8q5 -2 18 -16q6 5 6 14v-25q-3 4 -7 4t-5.5 -3.5t-2.5 -6.5l1 -1q5 1 8 1q48 43 48 59q0 3 -4.5 9t-4.5 16q-5 -18 -17 -45q-11 18 -11 36q0 -8 6 -14q2 8 14 21q-1 4 -2 8.5t-9 4.5q-6 0 -10.5 -2.5t-5.5 -2.5q-3 10 -23 50q0 -11 -4 -25l-4 -14 q-14 19 -14 33q0 8 5 14q-3 5 -28 18q17 0 22 5q-5 5 -19 5q7 2 25 12q-7 7 -7 12l10 18.5t10 33.5q0 5 -1 10q5 -1 16 -5q6 -3 11 -3q4 0 6 2q-6 14 -10 114q0 23 -5 39q-5 -3 -5 -9q0 3 -3 11.5t-3 11.5q0 -9 10 -9q12 143 18 191q17 136 44 223q3 0 13.5 -2.5t15.5 -2.5 q23 0 27 42q2 17 4 50l-9 9l-23 -22q7 20 7 35q0 10 -3 18q51 95 192 344q13 -5 144 -68q-9 -21 -94 -187q-72 -140 -76 -176q-13 29 -51 95q-4 -5 -4 -10q-22 7 -25 7q-7 0 -7 -8q0 -135 67 -135h5q-50 -164 -50 -383q0 -149 22 -202q-6 -17 -6 -29q0 -11 4 -18q5 4 4 20v7 v-1q0 -3 13 -4t13 -5h-18q-10 -10 -10 -20q0 -51 55 -207q45 -126 57 -150zM30 993h-10v21h10v-21zM35 986l-7 -22l-8 3l7 19h8zM360 562h-10v49h10v-49zM439 450h-10l-12 93h10zM55 829q-2 -4 -16 -14.5t-14 -15.5q0 107 5 149q-2 -13 -2 -36q0 -9 1 -27v-28q0 -18 -1 -29 q4 -4 10 -4q7 0 17 5zM360 542l-7 -15l-8 3l7 15zM438 411h-9v26h9v-26zM360 467h-10v43h10v-43zM338 495h-10v15h10v-15zM338 480l-8 -15l-8 4l8 14zM97 717l-6 -37h-10l6 37h10zM360 383h-10v48h10v-48zM64 711l-7 -26h-9l6 26h10zM74 593l-6 -5l-25 25l6 6zM52 573h-10 v26h10v-26zM-4 624h-8l-7 19l8 3zM39 744v-1q-1 -57 -3 -123q-3 -58 -3 -67v-191q0 -111 -20 -154q2 5 2 13q0 22 -10 68q5 5 5 10q0 2 -2 4q-17 -17 -17 -40q0 -6 1 -13q-15 21 -15 42q0 19 29 33l11 11v108l-16 -6q0 14 -7 43t-7 43q0 9 4 9l31 -6q-6 40 -6 89q0 22 1 46 l7 129q16 -31 15 -47zM97 388h-10v43h10v-43zM101 376l-16 -7v8l13 7zM170 282h-10v15h10v-15zM-60 456h-10v76h10v-76zM151 233q-15 -15 -19 -30q-5 7 -5 22q0 34 11 50q0 -16 13 -42zM114 251l-8 -5l-19 25l8 6zM97 204h-10v48h10v-48zM106 183q-13 -27 -13 -42 q-6 18 -6 31q0 11 4 19q5 -1 15 -8zM141 120l-14 -14l-5 6l13 14zM-54 260h-10l-6 93h10zM119 134l-12 -38l-8 3l12 35h8zM30 41h-10v161h10v-161zM105 40v-2v-25q-10 6 -15 6v11q0 19 5 29l-14 15q-6 -5 -6 -17v2q0 11 9 29q-2 3 -17 18h14q10 1 13 1q0 -11 6 -34.5 t5 -32.5zM-54 80h-10v15h10v-15zM81 497v39q0 -5 -14 -5q14 -28 14 -34z" />
<glyph unicode=")" horiz-adv-x="647" d="M598 1431l-7 -15l-8 4l7 14zM515 1485v1q-2 -13 -2 -90q0 16 -19 16v60q11 13 21 13zM501 1443l-8 -16l-8 4l7 15zM518 1370l-6 -33h-10l6 33h10zM478 1360h-10v16h10v-16zM644 1142h-10v27h10v-27zM518 1188h-10v27h10v-27zM513 1156q0 11 -14 11q14 1 14 6v-17z M-118 1761h-10v16h10v-16zM-181 1819h-10v15h10v-15zM554 1084q-13 14 -21 14q11 8 16 8q0 -3 2.5 -11t2.5 -11zM-183 1809q-14 0 -14 -6v35q0 -22 14 -29zM-81 1748q-4 -16 -20 -51q0 18 -12 18v3q-1 11 16 28q-3 6 -9 6q3 0 10 -2.5t10 -2.5q4 0 5 1zM-170 1798l-7 -15 l-8 3l7 15zM595 1034q0 -4 -3 -7q0 13 -4 17q-3 -8 -3 -16t4 -18q-18 14 -31 23q-13 -14 -13 -17v0q0 20 -6 26h4q12 -1 20 7l22 5l-11 12q21 -20 21 -32zM217 1291q-1 0 -7.5 5.5t-14.5 5.5q-4 0 -11.5 -2t-11.5 -2q1 8 12.5 9.5t17 8t9.5 8.5q0 -5 3 -16t3 -17zM636 853 q-15 -14 -22 -14q0 22 9 22q8 -8 13 -8zM217 1246h-39q9 10 32 21zM598 860l-7 -23l-8 4l7 19h8zM230 1207q-4 -4 -29 -17q17 -8 17 -17q0 -1 -1 -2q-4 -18 -4 -22v-2q-4 14 -23 24q-1 5 -1 9q0 13 12 18q0 9 -9 18q-6 -4 -12 -14v19q14 0 30 18q0 -4 -2.5 -16t-2.5 -19 l10 12q9 -8 14 -8q1 0 1 -1zM249 1142h-10v16h10v-16zM263 1028h-9l-9 25l8 3zM312 965h-10v21h10v-21zM246 1011q-12 -13 -17.5 -13t-12.5 -2.5t-9 -2.5q0 9 -3 26t-3 25q4 7 25 48l-8 -12q0 -13 6 -13q7 0 11 2.5t5 2.5q-3 -7 -22 -26l4 -36q6 6 6 12q0 5 -4 9h22v-20z M201 1058q-9 0 -15 -5q3 2 4 10.5t4 8.5q2 -5 7 -14zM294 965l-14 -14l-6 6l14 14zM305 940l-17 -16v22q6 -6 17 -6zM201 1017q-20 0 -20 -7v10q0 16 7 24q0 -14 13 -27zM245 958q-24 24 -27 26l15 8q12 -12 12 -34zM317 879l-26 -25l-6 6l26 25zM317 844h-10v22h10v-22z M220 925h-10l-6 49h10zM200 954q-4 -1 -14 -7l-14 14q8 16 8 37q9 -9 10 -13q0 -1 -1 -2q0 -9 11 -9v-20zM306 827h-9l-7 14l9 3zM220 910l-8 -15l-8 3l8 15zM550 864l-8 -8q2 -52 2 -95q0 -94 -7 -144q-1 -14 -21 -23q3 -4 16 -4q-9 -45 -25 -130q1 12 9 57v0q0 20 -14 92 q-2 -8 -6 -244q-9 11 -24 37q-1 -5 -3 -11t-10 -6q-6 0 -7.5 3t-7.5 3q-10 0 -10 -11q-11 6 -19 22q-3 -3 -3 -16h1q-3 4 -16 16h-15q-2 -4 -9 -15v-21q9 -10 16 -10l14 12h35q31 0 42 11q-66 -222 -229 -492h-18q-6 0 -130 70q233 407 233 715q0 25 7 75.5t7 75.5 q0 11 -34 228q-4 -1 -12 -10q7 -5 6 -21v-5q-3 11 -3 20q0 7 4 19t4 16q0 21 -43 152l-13 -11q4 7 4 16q0 15 -10 37q-14 28 -16 34q-20 70 -64 154q-56 107 -69 140q51 27 140 77q148 -229 246 -522q6 1 6 6q-2 -6 -2 -17q0 -22 8 -63q3 17 12 45q0 -9 -2 -27t-2 -27 q2 -2 9 -6q20 -147 19 -188v-4q5 0 12 -2zM183 910h-27v10h27v-10zM198 904q0 -3 -3 -11.5t-3 -11.5q0 3 -4 9.5t-4 8.5h4q10 -1 10 5zM220 833h-10v50h10v-50zM220 795l-8 -15l-8 3l8 15zM495 317h-10v38h10v-38zM710 -242h-16v10h16v-10zM581 1028l-7 17l-8 -4l6 -13h9z M506 1028v32h-9v-32h9zM507 948v66h-10v-66h10zM507 615v308h-11v-308h11zM485 586q0 61 -12 91q-13 -52 -23 -74q-1 1 -1 3t1 4l1 2q-1 2 -7 2q-11 0 -17 -26q-3 -15 -3 -22v0q5 -6 21 -43q0 52 1 57h21q9 0 9 6q1 10 3 11q6 -8 6 -11zM415 587v15h-10v-15h10zM483 515v10 h-23v-10h23z" />
<glyph unicode="*" horiz-adv-x="745" d="M734 1180q-13 -14 -20 -14q-9 0 -29 3t-30 3q-14 13 -14 27q13 13 33 13h54q0 -5 3 -15.5t3 -16.5zM548 1365l-89 -55l-3 9l88 54zM757 699h-28l2 4q0 2 -4 8.5t-4 12.5q0 14 34 62v-87zM696 767l-7 -27h-10l7 27h10zM641 1063q-21 -23 -35 -30q6 -14 29 -45 q-10 -16 -26 -44q-15 20 -45 59.5t-63 39.5q-3 -2 -18 -15v-23q9 -6 29 -24q-4 -1 -25 -5q-16 -3 -16 -12q0 -8 19 -29q23 -25 28 -34q-29 2 -126 2q-5 0 -20 -16q0 -3 5 -12.5t5 -12.5q-6 8 -19 23q-38 -47 -81 -129l-106 76q-54 -60 -82 -128q-2 5 -2 11q0 51 75 126 q-2 3 -8.5 6t-9.5 6q36 37 100 116q-84 21 -146 29q23 70 30 116q-15 -8 -42 -23q57 63 64 63t7 -2v-1.5v-0.5q0 -2 5 -2v0q7 5 49 22q-17 -10 -31 -24q35 -29 100 -51q2 13 2 30q0 31 -7 77q-19 -9 -54 -23q53 37 53 65v3q7 -1 14 -1q31 0 78 24q56 28 71 35 q-13 -12 -82 -54q17 -5 47 -5q13 0 28 1q0 -25 -6 -75t-6 -74q2 -2 10 -2v0q19 10 130 58q14 -41 19 -41q6 0 6 3q-1 2 -2 6q1 3 5 3q28 0 50 -7v-55zM576 785q0 -21 -12 -29q-10 21 -10 29h22zM530 838q0 -7 -50 -52q-32 18 -32 41q0 46 50 46q32 0 32 -35zM572 731l-6 -5 l-20 20l6 6zM543 722h-8l-7 14l8 3zM549 693h-10v16h10v-16zM470 681h-33q0 25 3 28q0 -17 14 -17q9 0 9 9q0 -3 3.5 -10t3.5 -10zM-8 1019l-23 -7v9l20 7z" />
<glyph unicode="+" horiz-adv-x="898" d="M325 1166q-8 -27 -29 -71q-12 32 -12 61q0 26 15 57q0 -15 10 -38l-4 -3q2 -3 7 -18q4 4 13 12zM326 1149q-1 -13 -12 -37v28q0 9 12 9zM794 660h-277v-265h-139v163q8 0 16 8q0 8 -16 20q1 6 1 12q0 28 -11 64v0q2 -2 15 -2q8 0 8 6q0 -11 4 -15q4 5 4 9l5 -9q4 5 4 9 q-1 -3 -1 -5q1 -4 6 -4q4 1 4 7q0 -11 10 -11q5 0 5 1v1v1q1 1 4 1q6 0 19 -12q3 3 15 3v44q-7 8 -11 8q-44 0 -100 -10q-7 -9 -17 -25q2 2 2 3q-1 3 -4 6q-2 -2 -16 -9q-2 -2 -2 -12v-11q1 -7 1 -10q0 -15 -7 -20q1 -10 6 -30q-3 0 -8.5 -1.5t-8.5 -1.5q4 3 4 10q0 6 -3 14 q-7 -6 -7 -17q0 -7 10 -35v0q2 4 12 13v-167l-8 -9q-9 -7 -11 -21q0 -5 -3 -11q-4 13 -12 34v0q-4 33 -7 143l-3 120q-8 -41 -8 -61q0 12 -1 35.5t-1 35.5q-6 4 -18 4q-5 0 -11 -1q0 14 -3 17q-2 -3 -2 -17h-12h1q-1 3 -7 8q-3 -4 -4 -8h-15q-9 9 -9 19v22q3 0 7 1h12 q2 0 3 1t1 3v0v5q0 4 4 4q5 0 5 -2v-1q-1 -3 -1 -4v-2q7 7 7 11q0 11 -10 23q1 4 1 10q0 9 -3 20q-15 -1 -19 -51q-1 3 -5 8q-13 -6 -14 -29v-2q0 -22 15 -35h-87v125h170q12 0 12 13q7 -13 12 -13q1 1 1 2q0 7 -2 19.5t-2 18.5q0 16 10 23q1 3 1 4q0 3 -2 5q-5 -3 -10 -3 v13q0 24 5 39q-2 6 -9 8q-5 75 -5 68v90h29q3 -14 12.5 -40t9.5 -29q0 -12 -21 -27q0 -12 -4.5 -35.5t-4.5 -34.5q0 -20 7 -46q1 -5 1 -14q0 5 -1 -25v-4q0 -20 13 -32h51v264h139v-262h279v-128zM271 831q-1 -10 -5 -32q-6 5 -11 5q7 8 16 27zM336 525h-6l-5 10l6 3z M273 551h-8v20h8v-20zM273 544l-6 -11l-6 2l6 11zM273 502l-6 -11l-6 2l6 11zM260 466h-7v16h7v-16zM320 352q0 -147 -5 -147h-1q0 53 -9 72v19q8 7 11 28zM294 196h-8v12h8v-12zM297 176q0 -8 -7 -27v40q1 -4 7 -13zM315 1045v11h-7v-11h7zM323 1015v11h-7v-11h7zM323 990 v15h-7v-15h7zM453 620q-10 10 -12 10q-4 -4 -4 -12q0 -5 2 -13q2 3 14 15zM352 719l-17 5v-6l14 -5zM339 734q-4 4 -11 6q-2 -5 -2 -10q0 -9 8 -19q-2 4 -2 8q0 8 7 15zM425 614v11h-8v-11h8zM328 669v15h-8v-15h8zM306 601v12h-7v-12h7zM167 707v11h-7v-11h7zM319 390 l-5 13l-6 -3l5 -10h6z" />
<glyph unicode="," horiz-adv-x="346" d="M241 119l-23 35h23v-35zM206 142q0 -45 -9 -49q-5 -2 -11 -2q-15 0 -35.5 23.5t-23.5 39.5h15q1 -2 6 -7l9 8q-2 -3 -2 -5q1 -3 5 -3q5 0 7.5 4t6.5 4q5 0 18 -16q4 0 8.5 1.5t5.5 1.5zM185 67q0 -12 -9 -11h-2h-12q8 3 23 11zM242 35v-38q-13 -24 -77 -172h-66l48 170 q2 4 9 4l24 -12l6 6q-11 3 -34 18q-1 0 -3.5 -5.5t-6.5 -5.5h-2h-37v69v2.5v2.5v80q6 -11 31 -36v-19q-12 6 -27 13q-2 -1 -4 -3q7 -8 18 -20l-8 6l-10 -21v-5l1 -2q5 4 15 16q1 -1 1 -2q0 -4 -9 -12q7 -16 19 -47q3 -3 8 -3q10 0 23 12q4 -2 11 -8q2 2 2 4q0 4 -4 7 q4 0 13 -3.5t13 -3.5q15 0 46 8zM192 112v22h-7v-22h7zM202 -10v7h-11v-7h11zM211 -60l-4 16l-6 -2l5 -14h5z" />
<glyph unicode="-" horiz-adv-x="778" d="M637 758q-7 0 -18 -11q0 19 6 31q12 -13 12 -20zM666 713l-7 -14l-7 4l6 13zM676 654h-9v14h9v-14zM384 802l-6 -24q-12 0 -24 24h30zM674 805q-35 -16 -38 -27q-14 16 -30 16q1 -20 -17 -58q-8 17 -25 47l-16 -62q-5 23 -32 41h-14q-5 -5 -6 -9q1 -3 8 -3q-1 -1 -2 -1 q-3 0 -6 3l-8 -9q4 -3 14 -22q10 10 9 10l13 -14q-20 -5 -20 -17q0 -5 3 -11q6 0 8 5q4 6 -1 9q16 0 25 -21v-28h-54q-83 -1 -73 -1q0 8 -5 21q-8 0 -8 -20h-296v154q47 -4 74 -4q28 0 36 4q-1 -4 -1 -8q0 -8 4 -17q19 26 44 26q7 0 16.5 -5.5t14.5 -5.5t12.5 5.5t13.5 5.5 q21 0 23 -20q3 -31 11 -43q4 0 8 3q-8 13 -8 31q0 -7 16 -25q-4 -9 -4 -15t3 -11q8 -9 16 -19q11 13 11 23q0 7 -9 20t-8 19q3 -6 11 -15q10 10 17 10l9 -10v-1q1 -1 2 1v8q0 3 -11 15t-14 25h284zM448 763l-6 5l-12 -12l5 -6zM449 746h-9l-6 -24h9z" />
<glyph unicode="." horiz-adv-x="345" d="M241 127q0 8 -10 8q-1 0 -3 -1l9 11q4 -4 4 -18zM242 -7h-139v151h81q0 -13 4 -19q1 4 1 19q15 -11 17 -11q3 0 7.5 1.5t5.5 1.5v-12q0 -16 3 -30q6 6 6 27q10 0 14 -5v-123zM213 107v22h-7v-22h7zM227 41q-6 10 -6 24v10q-1 -5 -7 -12l-16 16q0 -11 3 -23q3 1 5 1 q8 0 10 -9q2 -4 2 -8q0 -5 -2 -8z" />
<glyph unicode="/" horiz-adv-x="949" d="M555 1613h-10v16h10v-16zM549 1572h-10v16h10v-16zM544 1543h-10v21h10v-21zM538 1529l-6 -39h-10l6 39h10zM567 1370l-8 -16l-8 4l8 15zM534 1384q0 -13 -12 -35q-7 6 -23 6q-4 -5 -4 -11q0 -12 17 -29h-2q-8 0 -13 5q-14 -11 -29 -71q26 156 55 193q-9 -17 -22 -72 l9 -10q9 6 24 24zM986 692q0 -10 -15 -40q0 7 -3.5 20t-3.5 20h22zM386 1153l-8 -15l-8 3l7 15zM432 1095l-25 -45l-8 3l25 45zM397 993h-10v27h10v-27zM362 942l-7 -15l-9 3l8 15zM845 1570l-299 -818q-10 6 -20 6q-7 0 -14 -4q10 -9 35 -9q0 -5 -15 -34q0 19 -5 23 q-5 -14 -17 -41q-3 9 -12 24q-3 -3 -3 -15q0 -10 11.5 -21.5t11.5 -13.5l-259 -710h-156q68 181 171 481q-1 4 -7 14q10 0 21 17l238 655q6 15 21 23q-5 4 -11 4q19 48 55 143q33 94 33 182q0 25 -3 48v-36q0 -52 6 -87q19 56 62 169h156zM327 861l-8 -16l-8 4l8 14z M280 755l-13 -27l-8 3l13 27zM251 697l-13 -28l-9 4l14 27zM218 635q-2 -6 -14 -22v-2q0 -30 -28 -45q12 23 42 69zM195 557v0q-3 -5 -18 -33h-27q0 13 17 17q2 2 2 4q0 4 -8 12h34zM173 516q-13 -10 -20 -57q-13 13 -26 13q9 25 23 32q-5 7 -5 12h28zM138 454l-3 -9l-20 8 v8zM126 416l-33 -33q0 17 4 21q-10 10 -11 13q5 -1 14 -10q10 9 26 9zM532 770v22h-10v-22h10zM518 731q-4 0 -12 2t-13 2q-14 -14 -15 -17v0q0 4 3 13.5t3 13.5q5 0 34 -14zM391 407v16h-10v-16h10zM337 271l-3 9l-31 -13v-9z" />
<glyph unicode="0" horiz-adv-x="757" d="M804 834h-10v16h10v-16zM751 729h-10v16h10v-16zM879 594l-4 -9l-15 8l3 8zM751 603l-7 -16l-8 4l7 15zM869 502q-28 -22 -62 -89h-22q8 35 84 89zM751 524h-10v22h10v-22zM763 472h-8l-8 13l9 4zM792 384h-10v15h10v-15zM831 304q-14 -15 -14 -24q0 19 -3 59.5t-3 60.5 q2 -26 5 -52q5 -37 15 -44zM767 331q-8 -1 -14 -7q-13 17 -19 30q-10 -14 -14 -23q6 -4 17 -8v-39q-18 14 -24 23q-10 -46 -38 -135q-2 -5 -15.5 -20.5t-13.5 -26.5q0 -9 9 -16h-2q-7 -1 -12 5q-58 -52 -87 -80q1 -5 1 -19q-17 0 -22 -4q5 -4 14 -4l8 1q2 -4 2 -9 q0 -40 -30 -53q5 -4 12 -4q-13 -13 -35 -26q8 11 8 23q0 16 -12 34l-6 -2l-14 5q13 8 24 13v2q1 17 -21 17q-20 0 -28 -26l-8 -44q0 78 -5 117q-4 -10 -4 -30q0 -12 1 -27q-39 -13 -61 -13q-8 0 -24.5 6t-25.5 6q-8 -6 -21 -18q-10 18 -83 53q-76 36 -113 90q-58 83 -58 236 v811q0 143 91.5 240t233.5 97q141 0 233 -97t92 -238v-720l17 -39q9 21 27 64q0 -15 20 -24v-121zM798 294l-7 -23l-9 3l8 20h8zM736 271l-4 -26q-7 5 -23 13q14 0 27 13zM745 191h-8l-7 13l8 4zM791 8l-17 -8v9l14 7zM634 82l-7 -16l-8 4l7 15zM632 -4q0 -4 -4 -10 q0 -6 -5 -25v47q9 -5 9 -12zM564 -79h-10v22h10v-22zM564 -92l-7 -23l-9 3l7 20h9zM491 664v466q0 177 -113 177q-50 0 -82 -41.5t-32 -93.5v-864q0 -21 33 -83q0 217 4 222q3 -20 11 -238q18 -19 37 -19q4 0 25 13q-6 11 -6 19q0 5 3 8h6q6 -12 4 -39h34q5 13 16 34 q5 -6 7 -12v23q-5 0 -12 -6q10 12 19 34q-6 3 -17.5 42.5t-11.5 52.5q0 9 13.5 41.5t14.5 45.5q-11 0 -16 4q12 16 14 26q10 51 9 128l-1 18q-22 0 -34 -2q6 8 20 20q6 -5 14 -5q1 10 1 24v171q-5 27 -5 41q0 15 8 27q10 -28 15 -44q-12 -46 -12 -70q0 -13 1 -63 q1 -39 0 -63q15 8 33 6zM733 384l-6 6l-14 -14l6 -6zM710 372v22h-10v-22h10zM491 565q-1 28 -1 87q-33 -26 -33 -44q0 -24 34 -43zM721 324l-16 8l-3 -8l15 -8zM494 536v16h-10v-16h10zM494 483v16h-10v-16h10zM491 428q-17 0 -23 6v56q18 22 23 38q-18 0 -23 4q6 11 6 18 q0 8 -10 8q-4 -53 -4 -91v-25q0 -38 4 -82q9 1 12 4l-2 1q9 25 17 63zM485 347q-5 -5 -14 -5q-4 0 -6 1v-106q4 28 20 110zM521 -3q-2 5 -4 11q-2 -4 -2 -6q0 -4 6 -5zM111 282h-22q6 -13 15 -28q7 13 7 28zM465 1046l-14 -21l-8 6l14 20zM459 981h-10v27h10v-27zM459 951 h-10v22h10v-22zM459 905h-10v21h10v-21zM435 782h-10v15h10v-15zM435 694h-10v16h10v-16zM418 635h-10v16h10v-16zM429 472h-8l-7 19l8 3zM373 307q-16 14 -16 29q0 14 15 58q1 -4 1 -48v-39z" />
<glyph unicode="1" horiz-adv-x="609" d="M574 1526h-10v16h10v-16zM568 1484h-10v16h10v-16zM562 1454h-10v22h10v-22zM749 1249h-11v16h11v-16zM556 1440l-6 -41h-11l7 41h10zM646 1176h-10v263h10v-263zM751 1211q0 -21 -15 -35v22zM671 1164h-11v107h11v-107zM586 1275l-8 -16l-8 4l7 15zM751 976 q0 -25 -14 -66q-8 35 -8 34q0 10 22 32zM683 936h-11v70h11v-70zM682 911h-10v17h10v-17zM574 966h-10v22h10v-22zM682 827h-10v16h10v-16zM574 938l-8 -16l-8 4l7 15zM683 652h-11v29h11v-29zM572 633q-1 15 -7 71q-5 45 -5 71l12 135v-277zM552 1290q0 -13 -12 -36 q-7 6 -24 6q-4 -4 -4 -10q0 -13 18 -31q-6 2 -19 5q-6 -32 -6 -105v-1117h-216v314l-8 11q8 8 8 20l-4 287q-5 -6 -14 -17q21 23 21 50q0 20 -11 42l8 7v469h-186v146q63 9 141 69q68 52 113 112h153v-240q8 25 29 75q-7 -13 -21 -71l9 -10q9 6 25 24zM589 237h-21v390 q12 -48 13 -125q2 -123 8 -265zM261 583l-14 -29l-8 4l13 28zM227 519q-5 -9 -15 -22q1 -32 -28 -49q12 23 43 71zM204 439l-1 -2q-6 -10 -18 -31h-28q17 11 17 14q0 6 -5 19h35zM180 397q-13 -12 -20 -59q-13 13 -27 13q9 26 24 33q-6 8 -6 13h29zM145 333l-4 -9l-20 7v9z M132 294l-34 -34q0 17 4 21q-7 7 -11 14q7 -4 14 -11q10 10 27 10z" />
<glyph unicode="2" horiz-adv-x="877" d="M1008 1580h-10v16h10v-16zM1060 1537l-17 -7v8l14 8zM1068 1522l-14 -21l-8 5l14 21zM1020 1547l-8 -5l-14 21l8 6zM937 1607l-8 -23l-8 4l7 19h9zM1037 1496l-18 -7v8l14 7zM859 1677l-7 -16l-9 3l8 16zM991 1503h-11l-6 34h10zM937 1513l-7 -27h-10l7 27h10zM857 1634 l-31 10q-1 -22 -1 -65q-3 15 -12 47q-6 -3 -6 -9q0 8 6 23.5t6 23.5q2 -7 12 -14q4 3 4 11q7 -6 22 -6v-54v-130l-1 -32q0 -1 -1 -2v0q-13 19 -33 63q6 8 6 13q4 -6 14 -17l10 11q1 12 -18 20v73q9 11 23 34zM1217 1155h-9l-7 14l8 4zM811 1530l-6 -6l-15 15l6 6zM990 1335 l-7 -16l-9 3l8 16zM818 1500l-8 -16l-8 4l7 15zM990 1297h-10v16h10v-16zM764 1529l-8 -16l-8 4l8 15zM788 1494l-8 -16l-8 4l7 15zM322 1944l-23 -7v8l20 7zM907 1332h-10v16h10v-16zM937 1256h-10v33h10v-33zM857 1297q-13 0 -29 15h3q6 1 11 -4q6 26 6 62q9 -33 9 -73z M157 1971l-8 -15l-8 3l7 15zM860 1271l-7 -39h-10l6 39h11zM841 1185h-8l-7 20l8 3zM108 1926l-18 -7v9l14 7zM842 1161h-11v16h11v-16zM1164 800q-5 39 -33 50l28 27q5 -21 5 -77zM937 1037h-9l-7 14l8 4zM860 1112l-7 -27h-10l7 27h10zM406 1544l-15 -11l-5 8l15 11z M863 932q-12 -7 -29 -7l1 6q0 12 -7 23q0 -2 15 16l8 55q0 -32 12 -93zM1205 524h-9l-7 20l8 3zM1086 630h-11v22h11v-22zM854 837h-11v63h11v-63zM1036 693q-6 1 -15 1h-11q4 0 -15 -11v22q-2 0 34 6q0 -18 7 -18zM800 866h-10v34h10v-34zM818 850l-15 -21l-7 5l14 21z M1036 607h-4q-16 0 -26 1l8 33q6 -3 22 -34zM967 686l-8 -16l-8 4l7 15zM850 771l-16 8q8 29 8 39q8 -13 8 -47zM940 695q0 -9 -2 -21q-4 6 -14 16v39q16 -8 16 -34zM994 637q-6 -2 -20 -5q5 0 18 27q0 -14 2 -22zM520 1096h-10v34h10v-34zM996 628l-7 -23l-9 4l8 19h8z M800 801h-9l-7 14l8 4zM961 625h-10l-6 39h10zM1033 597l-25 -44v22q19 10 25 22zM526 1067h-9l-7 14l8 3zM1045 526q0 9 -6 15q-13 -13 -32 -22q10 9 10 17q0 5 -5 9q17 0 21 -4q12 12 12 39v2v-56zM865 666h-10v16h10v-16zM1002 530h-8l-8 14l9 3zM1000 586 q-19 -18 -20 -39h-30l-13 10q-6 4 -19 2v23q10 -9 32 -23l36 28l-3 6q6 -3 17 -7zM875 598q-10 -2 -34 -9q0 65 -13 157q8 2 23 6v-19q0 -82 -6 -123zM1103 418h-8l-7 14l8 3zM1030 505q0 -15 -10 -29q-8 28 -8 27q0 14 17 14l1 -7v-5zM818 723l-6 -34h-11l7 34h10z M514 1010l-8 -16l-8 4l7 15zM991 514q-4 5 -26 5q3 5 6 15zM425 1049h-11v51h11v-51zM907 597l-8 -15l-8 3l8 15zM1067 425l-15 -15l-5 6l14 14zM1127 336h-10v21h10v-21zM947 507h-4q-11 0 -11 -4q0 27 -1 44q7 -16 16 -40zM825 638q0 -14 -7 -20q-1 4 -8 15q15 0 15 5z M794 664l-8 -23l-8 3l7 20h9zM145 1312l-8 -23l-8 4l7 19h9zM734 705l-7 -23l-9 3l8 20h8zM765 648h-11l-6 28h10zM1145 259h-10v22h10v-22zM815 601q-25 0 -40 -1q0 18 17 18q23 0 23 -17zM705 709l-8 -15l-9 3l8 15zM836 560h-11v15h11v-15zM508 903l-14 -21l-8 5l14 21z M425 931h-10l-7 28h10zM466 884h-9l-7 20l9 3zM851 491q0 -8 -17 -8q0 8 6 14q-5 1 -15 9q-6 -6 -6 -15q0 14 21 24q-3 3 -11 7l-4 -2q9 8 24 33q0 -10 1 -31t1 -31zM1151 206l-15 -14l-6 6l14 14zM728 640l-13 -35l-9 4l14 31h8zM933 389h-8l-10 33h9zM1055 269l-5 -7 l-21 14l5 8zM889 440l-7 -23l-9 3l7 20h9zM469 870q0 -37 -16 -46v40q6 3 16 6zM97 1191h-10v39h10v-39zM907 410l-3 -21h-10l3 21h10zM300 1024l-6 -40h-11l7 40h10zM64 1248q-10 -22 -8 -29q0 9 -17 9q8 8 25 20zM683 623q0 4 -5 -22q-9 2 -28 6q3 8 8 25q-3 -3 -4 -15 q0 -5 7 -5q10 0 22 11zM728 548h-10v16h10v-16zM359 911l-7 -6l-20 20l6 7zM431 819h-11v16h11v-16zM728 538l-7 -15l-9 3l8 15zM863 402q0 -7 -9.5 -24.5t-9.5 -26.5q0 -10 7 -18q1 -4 1 -7q0 -6 -4 -9q-2 6 -7 12q10 0 -19 -11q2 8 14 37q9 23 9 36q0 22 -23 36 q8 -4 13 -4q1 1 1 2q0 4 -8 12q10 16 20 39l2 -49q1 -3 7 -10t6 -15zM26 1223l-8 -16l-8 3l7 15zM728 512l-16 -11l-5 8l15 11zM1143 84q0 -2 -2 -6q-10 4 -15 4q1 6 8 17q9 -9 9 -15zM383 825h-10v22h10v-22zM681 530h-11v16h11v-16zM103 1124l-7 -23l-9 3l7 20h9z M804 1128q0 -91 -54 -240q-42 -116 -87 -199l-19 -34q0 -12 11 -11q-19 0 -41 -43q-8 -20 -27 -57l-78 -117q-63 -95 -152 -232h416v-196h-659q5 22 5 42q0 24 -7 46q-4 -7 -11 -21q0 11 -14 16v-19l-3 29q30 3 33 50q2 34 18 89q47 67 139 201q-2 2 -5 2q-8 0 -18 -10 q5 8 21 16q14 -34 53 -82q50 34 50 68q0 7 -16 28q-1 15 -4 47q-19 12 -19 25q0 -9 6 -14q3 7 15 26q-2 2 -4 2q-5 0 -12 -5q0 15 -7 22l18 3q32 68 72 128q39 57 51 109q20 8 20 40q0 12 -6 22q8 0 14 -5q57 89 57 153q0 12 -3 23q0 -7 5 -11q15 49 15 118q0 84 -25 120 q-31 45 -111 45q-28 0 -66 -57q6 -5 18 -10l-2 -2q-6 -7 -6 -20l-19 18q-24 -41 -24 -92q0 -13 2 -38t2 -38q0 -14 -2 -26q-15 1 -31 1q-51 0 -104 -8q-34 12 -78 6v121q0 14 22 92t27 87q21 26 42 53q29 37 29 54q8 0 14 -6q78 65 205 65q174 0 257 -119q12 -17 29 -18 q-1 -6 -1 -12q0 -23 16 -51l14 10q-4 -9 -4 -25q0 -27 11.5 -79.5t11.5 -79.5zM681 507h-11v15h11v-15zM425 748h-11v40h11v-40zM103 1087l-8 -16l-8 4l8 15zM73 1090h-10v22h10v-22zM1007 146l-18 -8v9l14 7zM723 400h-11v52h11v-52zM663 465h-10v40h10v-40zM770 365h-10 v22h10v-22zM61 1073h-8l-14 31l9 4zM347 798l-7 -16l-9 4l8 15zM1046 87q-13 14 -34 14q11 2 27 15zM91 1038l-14 -21l-8 6l14 21zM615 465h-10v63h10v-63zM32 1087l-8 -16l-8 4l7 15zM1044 80l-8 -23l-8 3l7 20h9zM592 534l-7 -33h-10l6 33h11zM667 444q-8 -9 -8 -15 q-7 7 -21 35q12 -7 29 -20zM734 369l-6 -6l-15 15l6 5zM407 698l-8 -16l-8 4l7 15zM968 161q-10 -19 -25 -50q0 19 -8 19q16 14 33 31zM103 967h-10v33h10v-33zM848 182h-11v45h11v-45zM1110 -57l-8 -16l-9 4l8 15zM923 133q0 -9 -40 -22v4q-1 14 14 43q0 -19 5 -24q4 3 8 3 q6 0 13 -4zM114 919l-21 -15l-5 9l21 14zM32 1006l-14 -35l-8 3l13 32h9zM180 847l-7 -23l-9 3l8 20h8zM770 221l-7 -6l-14 15l6 6zM91 890h-9l-7 20l9 3zM56 896h-11v39h11v-39zM359 619l-15 -15l-6 7l14 14zM103 876l-7 -23l-9 3l7 20h9zM568 410l-8 -23l-8 3l7 20h9z M818 149l-8 -15l-8 3l7 15zM609 350l-7 -16l-9 4l8 15zM106 834h-22v10h22v-10zM-35 978l-4 -9l-20 8v8zM350 587l-14 -7l-3 9l17 7v-9zM521 402q-2 -7 -5 -20q-10 11 -10 16q15 -1 15 4zM271 609q-4 4 -6 4q-5 0 -5 -13q-9 6 -9 17q12 0 20 -8zM38 825h-11v16h11v-16z M324 558l-7 -28h-10l7 28h10zM216 625h-10v21h10v-21zM615 257l-13 -35l-9 3l13 32h9zM514 324h-10v16h10v-16zM-58 872h-10v34h10v-34zM272 550v-38q-16 16 -16 26q0 25 15 56q0 -7 1 -22v-22zM161 635l-17 -7v8l14 7zM79 695h-10v22h10v-22zM114 678l-15 -15l-5 7l14 14z M216 542h-10v45h10v-45zM328 459l-3 -9l-20 8v8zM198 560h-10v39h10v-39zM-58 813h-10v34h10v-34zM79 666h-10v21h10v-21zM103 656l-8 -15l-8 3l8 15zM118 619q-9 -2 -29 -5q14 13 20 21q5 -5 9 -16zM752 -30h-10v22h10v-22zM177 532q-8 0 -19 -20q-16 20 -26 28l14 -11 q7 3 26 3h5zM1026 -349h-10v16h10v-16zM105 571q-14 14 -31 15h16q0 19 10 19zM55 606q-5 12 -16 35q-6 -3 -6 -9q0 20 13 20q3 -17 9 -46zM418 248l-21 -21l-6 6l21 20zM158 473q0 14 -5 14q-4 -1 -8 -5q0 23 8 23q5 -4 5 -32zM107 557q-10 -19 -15 -31q0 9 -9 18 q14 13 24 13zM244 408q-10 -9 -18 -14q2 0 -27 8q10 0 10 14q6 -6 20 -17q6 18 7 30q0 -12 8 -21zM46 592h-27v10h27v-10zM115 501h-10v15h10v-15zM142 465h-9l-10 20l8 3zM113 466q-10 0 -27 -16q7 16 25 44q0 -17 2 -28zM62 534l-7 -33h-10l6 33h11zM34 541l-1 -6 q-2 6 -6 12q0 -12 -7 -30q-1 3 -1 24v23q15 0 15 -23zM178 371q-13 0 -13 -13q-5 16 -16 44q9 17 4 33zM119 423l-17 -8v9l14 7zM-52 581l-7 -23l-9 3l7 20h9zM877 -413h-10v27h10v-27zM-22 483h-9l-7 20l9 3zM36 432q-15 -15 -15 -24v47q0 -8 15 -23zM627 -178h-10v16h10 v-16zM-58 501h-10v16h10v-16zM119 368q-11 -13 -20 -86q-16 14 -16 29l10 16q0 53 -2 60q10 -9 28 -19zM58 347q-6 6 -9 6q-5 0 -5 -10q0 8 4 23.5t4 23.5q0 7 -2 12q1 -19 8 -55zM-17 446l-5 -7l-27 19l5 9zM32 397l-8 -16l-8 4l7 15zM49 310l-7 -23l-9 3l8 20h8zM-28 359 h-10v16h10v-16zM526 -195h-10v16h10v-16zM103 238l-8 -16l-8 4l8 15zM109 200h-9l-7 14l8 3zM24 258l-17 -8v9l14 7zM425 -160h-11v22h11v-22zM-22 282h-10v22h10v-22zM61 227l-19 -52l-9 3l20 49h8zM-4 224h-10v45h10v-45zM38 214l-8 -16l-9 4l8 15zM323 -95h-10v16h10v-16 zM61 165h-10v15h10v-15zM106 112h-23q9 13 23 39v-39zM502 -268l-7 -23l-9 3l7 20h9zM335 -115l-7 -6l-14 15l6 6zM-28 229h-10v34h10v-34zM275 -56l-6 -6l-15 14l6 7zM44 79l-9 -5l-20 26l8 6zM115 -18h-10v21h10v-21zM330 -242h-10l-7 27h10zM222 -116l-8 -16l-8 4l8 15z M67 24l-15 -15l-6 6l15 14zM111 -48q-7 0 -20 -12q3 10 6 29q3 -6 7 -12q5 5 7 15v-20zM353 -313h-10v27h10v-27zM359 -366h-9l-7 14l9 3zM79 -93l-7 -15l-9 3l8 15zM-22 2l-8 -16l-8 4l7 15zM106 -237q-10 6 -16 6q3 8 7 23l2 -2q7 -9 7 -24v-3zM-15 -126l-8 -28h-10l7 28 h11zM109 -256l-7 -23l-9 3l7 20h9zM666 1111v10l-34 -6v-10zM282 1136h-10l-4 -22h11zM638 92l-4 9l-14 -7v-9z" />
<glyph unicode="3" horiz-adv-x="738" d="M659 929q-15 22 -15 21q0 6 7.5 19t7.5 19v-59zM698 831l-6 -5l-14 14l6 6zM672 879q0 -8 -2.5 -25t-2.5 -26h-18l-12 -53q-7 10 -22 68zM412 1027h-10v16h10v-16zM918 482q-22 10 -22 22q1 1 2 1q5 5 9 5q6 0 11 -7v-21zM924 424q-14 0 -26 -12q0 26 19 46q7 -37 7 -34z M324 1004h-10v21h10v-21zM679 452q-7 -15 -21 -40q-6 53 -66 41v3q1 10 -10 32q-12 -5 -37 -18q-8 0 -24.5 -6t-25.5 -6q-23 0 -23 -6q-5 29 -5 73q0 34 -21 74q-35 68 -99 77q-80 12 -95 24v167q42 12 128 35q0 -11 -23 -32l4 -49q22 21 22 41q15 -23 15 -69 q-19 -19 -41 -29q0 -16 10 -37q20 4 40 4t40 -4q4 13 4 50q0 25 -14.5 79t-14.5 79q0 7 10 23t11 24q14 80 14 85q0 246 -103 246q-86 0 -106 -132q10 -43 9 -95h-191l-13 6q0 28 6 92q11 114 21 143q20 61 91 115q93 70 192 70q11 0 31.5 -6t31.5 -6q5 0 6 -6t7 -6q4 0 8 3 t7 3q86 -50 120 -90q42 -49 62 -140q5 -20 7 -103q2 -65 10 -65t14 4q-19 -11 -19 -29q0 -10 6.5 -31.5t5.5 -33.5v-3l-12 6q-18 -89 -36 -133q-16 -26 -44 -70q10 -20 9 -44v-5q-3 23 -5 27q-5 15 -18 20q-8 -5 -27 -21q8 -4 79 -61q5 12 12 35v-10q-1 -24 16 -67 q23 -55 25 -66q20 -79 20 -162zM-74 1249h-10v16h10v-16zM231 939h-11v16h11v-16zM90 1035l-8 -15l-8 3l8 15zM-91 1167h-9l-7 14l8 3zM722 288l-7 -23l-9 3l8 20h8zM445 536l-14 -13q-24 12 -20 12q9 11 26 28q3 -9 8 -27zM389 512h-11v21h11v-21zM451 452l-17 -7v8l14 7z M406 465h-10v16h10v-16zM157 690h-15v10h15v-10zM131 623h-10v22h10v-22zM646 102h-10v16h10v-16zM658 73h-9l-7 14l8 3zM362 345h-21v10h21v-10zM-143 815q-5 39 -32 50q17 16 27 26q5 -21 5 -76zM658 39l-14 -21l-8 6l14 20zM149 477h-10v15h10v-15zM684 367 q-10 -27 -23 -108q-12 -77 -22 -96q-86 -167 -282 -167q-41 0 -139 24l-12 12q-81 28 -130 125q-42 84 -43 180q-9 17 -9 19q1 6 3 6h4q2 10 2 25q0 20 -3 47q104 0 111 -1q-14 -11 -14 -32q0 -17 13 -31l26 76q34 -11 54 -11q11 0 29 17q4 -3 11 -24q5 -17 12 -17 q20 6 104 35l1 2q0 9 -13 33q44 -30 51 -50q-81 -18 -108 -29q-67 -28 -67 -75q0 -52 34.5 -95t85.5 -43q46 0 81 59q24 49 47 99q4 -2 13.5 -15.5t16.5 -13.5q4 0 8 3t7 3q7 0 16 -18q5 5 21 15q8 -1 15 -1q41 0 99 74v-27zM289 254h-10v34h10v-34zM-39 561l-7 -16l-8 4 l7 15zM-103 541h-9l-7 20l9 3zM439 -81q-10 -11 -27 -34v4q1 20 5 30h22zM32 190h-11v27h11v-27zM-173 375l-8 -23l-8 4l7 19h9zM-162 278h-10v21h10v-21zM-156 226l-15 -15l-6 6l15 14zM295 -248l-14 -21l-8 6l14 20zM-163 104q0 -1 -2 -5q-10 4 -16 4q2 5 9 16q9 -8 9 -15 zM614 1048h-57q0 -7 3 -22.5t3 -22.5h28q0 15 23 45zM621 988q0 13 -29 13q3 -6 3 -12q0 -11 -44 -50h21q9 0 29 20t20 29zM330 789l-8 3l-11 -21l9 -3zM248 407v21h-10v-21h10zM219 73l-8 17l-8 -3l7 -14h9z" />
<glyph unicode="4" horiz-adv-x="945" d="M994 1826h-10v16h10v-16zM988 1784h-10v16h10v-16zM982 1754h-10v22h10v-22zM977 1740l-7 -39h-10l6 39h11zM1066 1480h-11v260h11v-260zM1006 1578l-8 -16l-8 4l8 15zM972 1592q0 -13 -11 -35q-8 6 -24 6q-4 -5 -4 -12q0 -12 17 -29h-4q-6 0 -11 5q-15 -11 -30 -72 q27 158 56 196q-9 -16 -23 -73l10 -10q9 6 24 24zM821 1357l-8 -16l-8 4l8 15zM135 1993h-9l-7 14l8 3zM869 1297l-26 -45l-8 3l25 45zM79 2015q-15 -17 -28 -17q-7 11 -7 17h35zM7 2035h-23l15 17q4 -6 8 -17zM833 1193h-10v28h10v-28zM797 1142l-7 -16l-9 4l8 15z M761 1059l-7 -16l-9 3l8 16zM765 674q-21 0 -34 -6q4 25 27 41zM49 1358q-6 -17 -19 -46q-7 7 -22 23h20q6 7 5 30q10 -7 16 -7zM841 370h-142v-364h-76q-5 113 -46 113h-39q-5 -21 -5 -18q0 -7 15 -27t15 -27t-3.5 -20.5t-3.5 -20.5h-59v341q0 24 -18 24q-21 0 -63.5 -3.5 t-64.5 -3.5q-59 0 -128 6q2 10 2 18q0 22 -20 52q-24 37 -29 50q4 10 11 25q-28 27 -57 27q2 0 -20 -5q-2 9 -7 27l383 938h217v-560q6 3 6 9q-10 -35 -10 -29v-279q12 7 19 7q5 0 17 -19q-2 -1 -5 -1q-10 0 -26 8l-5 -68q26 1 61 1t81 -1v-200zM55 1134q-24 0 -33 -19v42 q6 -2 12 -6l13 12zM117 370h-10v70h10v-70zM495 573v536l-73 -195q-43 -115 -53 -115q-14 0 -12 6l-16 -12q-10 -2 -22 -1v-28l35 -23q-21 -57 -59 -168h200zM547 659l-9 3l-7 -15l8 -4zM303 788l-7 28h-11l7 -28h11zM603 307v10l-27 7v-10z" />
<glyph unicode="5" horiz-adv-x="815" d="M669 1315h-380v-119q13 -5 26 -5q15 0 31 6q4 -6 7 -17h-4h-10h-236v332h566v-197zM758 240q-11 -27 -25 -96h-21q-5 20 -17 58q-15 -11 -27 -40q-14 -32 -24 -41q-37 -31 -94 -103q-7 -15 -15 -15t-20 12l-12 -12q-12 12 -23 12q-3 0 -15 -34q-14 -39 -19 -46 q-8 -2 -25 -2q-12 0 -20 2q-7 13 -32 33q-9 -18 -21 -18q-4 0 -11 3t-12 3q-7 0 -35 -38t-35 -38q-32 0 -84 59q-22 25 -60 54q-14 11 -14 32q23 7 20 7q6 0 17.5 -12t14.5 -14q10 -1 34 -8q21 -7 33 -7h58q10 10 10 19q-69 33 -102 65q-25 23 -76 95q-28 109 -35 209 q-6 11 -20 11v3q-1 12 17 29v45q-18 14 -53 34q9 44 41 81q16 -35 47 -47q36 -15 44 -25v2q-1 -1 -1 -5l-1 -22q0 -20 13 -20q6 0 15 -5.5t14 -5.5q7 0 18 8t16 8h27v-4q-1 -9 29 -27q8 -11 8 -105q0 -33 21 -79q24 -53 52 -53h68q10 10 10 32q0 13 -5.5 39t-5.5 39h21 q13 -24 34 -40q5 6 12.5 45t7.5 50v385q0 39 -28 66.5t-68 27.5q-84 0 -122 -117q-10 1 -20 1q-66 0 -66 -16l-5 21q-87 2 -100 0v313q0 56 23 99q-8 8 -78 11q-13 0 -21 2h169q6 0 17.5 -5t17.5 -5q7 0 14.5 5.5t12.5 5.5h43v0v0v-2v-9l-1 -44v-155q52 53 83 68 q39 20 109 20q103 0 169 -77q62 -73 62 -177v-348q-6 1 -12 1q-36 0 -36 -26q0 -14 9.5 -42t9.5 -42q0 -32 -42 -37q0 -15 11 -37h68l13 12q10 -7 26 -26zM224 659h-21v16h21v-16zM116 679l-8 -4l-8 17h9zM301 462l-34 -8v16zM3 676q0 -15 -14 -29q-31 6 -47 37 q-19 35 -21 36l12 4q11 -19 23 -19q4 0 9 3t9 3q29 0 29 -35zM69 -74l-7 -23l-9 3l8 20h8z" />
<glyph unicode="6" horiz-adv-x="748" d="M314 1665l-6 -34h-10l6 34h10zM94 1882q0 -22 -15 -35v22zM320 1610l-8 -15l-8 3l8 15zM101 1804h-16v10h16v-10zM686 1180v-87h-209q1 83 -7 120q-14 58 -61 101q-6 0 -12 -2q5 3 15 12q-1 7 -10 14l1 1q5 -1 13 2v19q-10 6 -10 21q-4 5 -9 5q-6 0 -13 -7q-5 7 -13 22 q6 2 14 7q3 -6 12 -17q4 15 8.5 30t18.5 21v2q0 10 -18 27h5q10 0 10 -4q1 2 1 4q0 9 -10 30h31q47 0 121.5 -62.5t84.5 -108.5q5 -22 22 -85q8 -27 15 -64v-1zM335 1427q-8 0 -21 -13q0 12 -5 18q-8 -5 -14 -5q8 5 23 20q-3 11 -14 30q5 7 5 21q0 39 -20 41q14 16 20 51 q4 -65 26 -163zM396 1427l-15 -15l-6 6l15 15zM294 1456q-11 6 -16 6q8 8 8 13q0 -11 8 -19zM267 1475l-8 -3l-19 33l8 3zM335 1356h-11q-12 0 -29 3q6 0 29 12q-10 17 -15 17q18 0 18 20zM174 1503h-10l-7 27h10zM633 1046h-27v22h21q3 -7 6 -22zM289 1445q-13 -19 -30 -30 q2 -5 9 -10q-18 0 -18 15q-15 -15 -35 -41q4 47 -14 47q3 0 -17 -5q2 11 8 16q-2 -5 12 -5q15 0 15 16q0 7 -5 18q8 0 13 -5q5 5 13 17q0 -18 2 -34q-9 0 -14 5q-3 -3 -4 -7q13 -3 38 -11q3 3 3 6q0 6 -8 9q9 0 20 -9l11 8h1zM777 882h-11v22h11v-22zM292 1382 q-6 -13 -21 -38q3 9 3 21v12l-1 13q9 -10 15 -10q3 0 4 2zM968 685q-33 -20 -54 -29l-4 32q27 12 44 18q10 -13 14 -21zM247 1353h-27v11h27v-11zM159 1423h-16v10h16v-10zM338 1278l-20 -46l-8 3l19 43h9zM335 1210q-9 -2 -28 -6q7 10 20 23q4 -6 8 -17zM180 1353l-8 -16 l-8 4l7 15zM344 1173l-7 -33h-10l7 33h10zM343 1105h-10v27h10v-27zM844 566q-37 6 -33 6v39q9 0 33 -12v-33zM285 1119l-8 -16l-8 4l8 15zM973 397q-17 -1 -44 -1h-19q-1 7 -1 11v4q0 15 9 20q13 -7 49 -7q3 -9 6 -27zM1084 219l-6 -27h-33q0 16 12 27h27zM823 426h-8 l-7 14l8 3zM804 439q-16 0 -20 3q-12 -23 -30 -23q-13 0 -31 19v21q24 -1 81 -20zM710 460q0 -468 -333 -468q-139 0 -231.5 94t-92.5 234q0 8 1.5 24.5t1.5 24.5t-3 23.5t-3 23.5q0 15 2 50q2 32 2 50l-1 16q-10 16 -10 22q0 14 13 40q22 -17 19 -17q-2 0 20 5 q-2 -8 -5 -24l6 -3q6 0 15 10q0 -15 16 -23q1 -1 2 -1q2 0 2 10q0 22 -29 22q3 5 6 15q20 1 24 -5l5 -1v15q-6 6 -12 9q-21 0 -31 0.5t-10 1.5v1l17 -19q-10 2 -32 16l-13 -5v90q-7 11 -7 15l7 8l1 7q0 10 -1.5 27t-1.5 25q0 34 12 53q-10 10 -10 19q17 7 19 7 q16 -14 38 -37q0 -8 -23 -19q11 -14 33 -43q19 9 19 20q0 8 -2 15q-7 -8 -21 -16q17 18 22 136q0 -29 2 -33q3 -9 23 -19q-9 -9 -9 -16q0 -3 1 -5l11 11l11 -11q1 11 6 35l17 -18q6 11 8.5 33.5t7.5 33.5q-10 -2 -34 -2q2 22 -19 67q0 6 17 17.5t17 17.5v6q-6 7 -16 24l6 6 l-4 20q-6 -25 -26 -25q-4 0 -7 1q-4 -26 -20 -82q1 16 0 43q-2 33 -2 43q0 5 -9 14q-6 -1 -6 -6v10q0 17 3 62q-9 4 -23 13q12 4 12 16q0 9 -6 27t-6 28h6l-12 304q20 60 20 67q-6 -130 22 -250q-7 3 -7 -11q0 -23 23 -46q-7 -14 -7 -25q0 -9 4 -16q-6 -19 -6 -29 q0 -21 36 -21q3 0 13 10v-21q-7 0 -20.5 2.5t-20.5 2.5q-10 -10 -10 -27q0 -5 5.5 -14.5t5.5 -14.5q0 -8 -2 -25t-2 -26v-6l13 -16q13 10 38 38q-10 10 -14 10q-1 1 -2 0q12 36 45 96q-4 14 -12 41q-4 11 -4 12q-1 0 -1 -1q0 16 11 41v8q4 -6 15 -17q3 12 13 29q0 -9 1 -23 v-23q-20 0 -20 6l-1 1l-1 -2l-1 -8q-1 -18 26 -38q-2 -7 -14 -15l9 -9l11 12q44 0 44 -10q-35 -11 -35 -13q0 -10 11 -30q5 0 7.5 5t4.5 6q1 -2 1 -6q0 -12 -9 -28q-8 12 -28 30q0 -17 7 -26q-9 4 -16 4q-4 0 -7 -1q0 -13 20 -18q2 -13 4 -37q22 -13 46 -13q-6 -5 -6 -29 q8 -2 21 -10q6 3 15 10q0 6 -12 11q14 8 14 20q0 -20 7.5 -60.5t7.5 -60.5q0 -25 -12 -33q5 -10 21 -33q10 10 20 10q-15 -15 -23 -27q0 -9 15 -24q12 12 15 58q13 0 38 3t37 3q239 0 236 -318q0 -24 5 -70t5 -68zM68 1060l-7 -15l-8 3l7 15zM195 896q-9 -10 -14 -18 q-1 9 -2 28v4zM7 570q0 -22 -11 -22q-14 0 -26 12l-11 -12h-26q-8 10 -13 17q0 10 37 10h10q25 0 40 -5zM-40 496q-17 11 -46 13l14 15q20 -2 32 -28zM-92 527q-9 -7 -31 -26h-26q-1 5 -7 15q7 10 25 31h33q0 -13 6 -20zM470 -74q0 -15 -13 -28q-22 0 -22 15q0 -2 7 20z M429 -59l-28 -7v21q7 4 20 13zM347 984q-25 22 -25 32q-1 -8 -7 -23q-18 8 -26 25q5 5 5 9t-3 7q-8 -13 -9.5 -46.5t-4.5 -37.5l23 4q-21 -12 -21 -40q0 -34 13 -40q28 -13 30 -16q5 12 9 26q0 23 -5 62q1 -2 1 -4q0 -11 -16 -20l-5 26q13 7 41 36zM197 990l-8 3l-8 -15 l9 -4zM299 835q0 21 -3 34q0 -13 -13 -27q6 0 16 -7zM493 520v53q0 43 -13 91q-18 65 -49 65h-65v-198q7 0 78 -30q15 0 49 19zM177 807q-1 17 -1 27l-22 -27h23zM187 780q0 6 -8 13q-13 -14 -13 -17q0 -6 16 -6q5 5 5 10zM125 720v3q0 11 -4 18q0 -6 -14 -9q8 -3 18 -12z M98 736v16h-10v-16h10zM127 703l-8 3l-8 -15l8 -3zM493 471q-5 -15 -5 -55l-1 -47q-1 -178 -110 -178q-50 0 -74 23q-8 8 -22.5 36t-14.5 37v79q4 -6 14 -17q11 5 23 28q13 27 21 34q-3 5 -26 5q5 0 13.5 7.5t15.5 7.5q4 0 7 -2q0 -15 -2 -10q9 8 27 21q-8 14 -15 14 q-15 0 -48 -11v40q-2 0 -2 -1q0 -3 26 -16q-1 10 2 29q0 -7 10 -18q5 12 10 12q14 0 17 3q-5 5 -10 15q20 -14 20 -15q0 -10 -1 -14q20 14 28 23h20l17 -18q-3 6 11 6q10 0 26 -8.5t23 -9.5zM154 541q-15 -8 -24 -8q-6 0 -9 3q0 -20 -8 -21h23q0 8 18 26zM192 475q4 0 -31 8 v-28h22q0 20 9 20zM158 524q-15 -29 -21 -29q-26 0 -29 -4q21 0 45 -19q0 9 2.5 26t2.5 26zM104 449v22h-11v-22h11zM156 385v16h-10v-16h10zM92 297l-8 17l-8 -3l7 -14h9zM313 981l-4 -8l-19 7v9zM376 430v-3q0 -8 -2 -23q-5 9 -15 18q11 8 17 8zM377 390l-3 -8l-15 7l3 9z M378 330l-6 -6l-14 14l5 6zM308 317l-10 -21l-8 3l10 21z" />
<glyph unicode="7" horiz-adv-x="743" d="M280 1072q-1 -13 -7 -45q-10 8 -16 8q10 11 23 37zM270 980h-8l-8 14l9 4zM294 945l-15 -15l-6 6l15 15zM265 920h-11v22h11v-22zM689 1342q0 -5 -31 -156l-246 -1186h-221l114 546q-12 46 -12 82v177q-15 -12 -15 -84q-9 36 -9 75q0 -21 8 89q9 3 17 13q-8 17 -8 24 q0 4 9.5 8t9.5 16q0 15 -30 30q16 5 25 51q4 -6 4 -19q4 -6 14 -6l1 5q0 10 -4 28.5t-4 27.5q0 21 16 35q1 4 1 6q0 5 -3 7l-13 -5v19q-1 34 6 55q-13 21 -13 120q-3 2 -55 2q-62 0 -197 -3v208h241q8 55 26 109q0 -20 15 -54l-6 -3l9 -27q7 6 20 17q-8 -8 -19 -41q9 9 9 17 q4 -6 15 -17h326v-166zM283 673h-11v29h11v-29zM283 664l-8 -16l-9 4l8 15zM283 604l-8 -16l-9 3l8 16zM265 553h-11v22h11v-22zM466 1303h-106q-31 -80 -31 -122q0 -22 5 -66.5t5 -65.5t14 -74l-18 -4q18 -25 21 -190q11 40 21 81q0 10 -4 28.5t-4 28.5l18 -6zM295 836v16 h-11v-16h11zM331 746v16h-11v-16h11zM337 667v71h-11v-71h11z" />
<glyph unicode="8" horiz-adv-x="868" d="M903 1571q-6 -3 -20 -7l-14 15q10 3 27 14q7 -8 7 -22zM900 1331h-10v22h10v-22zM745 1425q-11 -12 -27 -12l-6 27q20 0 33 7v-22zM582 1540l-1 -4h-21v22q22 -6 22 -18zM447 1542q-14 0 -23 8q10 8 15 8q8 0 8 -14v-2zM121 1564l-17 -8v9l13 7zM793 1550 q-16 -23 -48 -50l-2 -3q0 -4 9 -4q-13 -28 -38 -28q-6 0 -18.5 3t-18.5 3q-1 12 17 22q0 10 -9 18q-2 -4 -41 -4q-23 0 -32 -27q78 -75 106 -164q22 -70 22 -191q0 -234 -106 -282q-11 -20 -16 -31q89 -61 122 -157q24 -72 24 -197q0 -314 -175 -415v1525q9 32 20 78l1 -4 q0 -10 -3 -28t-3 -26q0 -41 33 -65q27 34 43 51q3 42 3 66l34 -14q-7 -8 -29 -19q11 -23 85 -55zM576 26q-89 -30 -149 -30q-149 0 -235 99q-10 0 -22 -11q-29 18 -50 31q23 41 23 50q0 17 -11 50q-14 41 -16 52q-13 69 -13 182q0 126 22 195q31 96 118 151 q-110 118 -119 250q-6 11 -15 11l9 14q-5 177 55 293q75 148 237 148q114 0 166 -36v-1449zM78 918h-21v10h21v-10zM17 783l-8 -15l-8 3l7 15zM-59 646h-10v22h10v-22zM-61 555q0 -9 -8 -9q-7 0 -21 7l6 22q13 0 23 -20zM-94 523h-11v22h11v-22zM-160 551l-17 -7v8l13 8z M49 301q-8 2 -24 5q-4 -4 -4 -9t5 -11q-14 -20 -34 -20q-1 47 -1 50q-3 30 -15 48q-5 -5 -21 -5q-5 -7 -5 -15q0 -3 12 -36q-18 -18 -50 -49q-4 7 -14 20q9 10 27 31v8q-1 35 25 44q-15 30 -46 77q24 2 45.5 33t20.5 56q14 -14 36 -24q-2 -48 -2 -47q0 -36 39 -29l-6 -28 q-8 0 -37 29q-3 -3 -3 -15q0 -19 18 -51t34 -41v-21zM126 144q-8 -8 -18 -8q-23 0 -30 19q-1 2 -8 40q-9 -10 -9 -23q-27 11 -26 11q3 0 -26 -10q25 28 80 92q2 -8 15 -36q10 -24 10 -36q0 -13 -12 -20q9 -8 24 -29zM202 26q-3 -6 -16 -6h-18q-19 33 -19 31t7 14h21 q7 0 25 -18v-21zM207 -21h-28l7 22q21 0 21 -22zM280 -101l-8 -3l-8 17h9zM122 49h-9l-7 14l9 3zM20 84h-39q-1 8 -1 12v4q0 14 8 18h26q6 -38 6 -34zM-110 195q-11 4 -27 13q5 5 13 16q6 -1 14 -29zM137 -85q-31 -16 -38 -30l4 51h34v-21zM-173 164q0 -16 -17 -16 q-12 0 -23 22zM-129 -115h-10v16h10v-16zM620 1489v27h-11v-27h11zM530 1105q0 207 -103 207q-22 0 -49 -13q2 -4 2 -17l-1 -17q-1 2 -1 5q0 5 5 13h-22q-2 -4 -2 -9q0 -11 13 -23q-14 -14 -45 -39q-8 -110 -8 -114q0 -17 1 -50v-51q18 4 51 0q0 10 9 26q12 21 13 26 q-7 -14 -17 -23l-4 19q14 11 43 28q4 -8 14 -23q0 12 7 12q14 0 34 -13q0 13 11 24q27 -8 27 -34q0 -2 -1 -3q-17 -11 -41 -32q22 10 20 10q13 0 26 -26q-23 -23 -23 -35t9 -21q32 52 32 173zM470 959v2q-21 -17 -19 -17q-4 0 -6.5 3t-5.5 3q-14 0 -14 -23l27 -6q1 5 10 16 t8 22zM406 950v5q-9 -5 -23 -5q-10 0 -23 26q-20 6 -28 14q31 -87 63 -87q12 31 11 47zM482 650q-4 -1 -9 -1q-17 0 -22 20q-5 -12 -18 -30q-6 7 -12 7q-4 0 -8 -4q19 -13 44 -32q12 12 25 40zM535 506l-8 63l1 -8q0 -25 -13 -39q-5 6 -13 6v-34q24 12 33 12zM508 535v16 h-10v-16h10zM444 596l-8 3l-8 -15l8 -4zM461 535v16h-10v-16h10zM419 604q0 7 -9.5 28t-9.5 30h-32q-10 -10 -27.5 -50t-17.5 -52v-17q1 11 11 11q20 0 19 0q9 13 26 27q8 -7 21 -23q0 6 9.5 23t9.5 23zM534 499q-22 -22 -22 -32q0 -14 7.5 -42.5t7.5 -42.5q7 41 7 102v15z M494 435q0 5 -7 34q-27 -13 -27 -27zM374 541v16h-10v-16h10zM453 418v27h-22q0 -27 22 -27zM419 443q-6 15 -20 44q-10 -17 -14 -29q-20 11 -67 11q5 24 42 43q-2 7 -7 21q-39 -7 -39 -13v-102q13 9 31 28q12 -11 18 -11q3 0 7 2.5t8 2.5q8 0 13 -29q16 8 28 32zM524 343 q-12 22 -38 56q-14 -14 -34 -29q-6 15 -20 29q0 -17 -8 -17q-5 0 -14 6t-15 6q-7 0 -20 -6t-21 -6q-26 0 -40 29v-68q0 -26 43 -55l17 10l8 25q-15 -10 -25 -10q-5 0 -9 3q-7 27 -7 49q22 -11 60 -11q-7 -16 -16 -31q-1 0 -1 1q20 0 27 -6q0 28 1 41q17 -12 22 -24 q0 12 8 12q11 0 21 -18q0 33 23 53q20 -21 20 -32q0 2 -5 -22h-29q8 -16 21 -16zM442 296l-8 10q4 0 -33 -8q4 -2 25 -2h16zM523 281q-112 -22 -148 -22q-33 0 -48 35q31 -99 97 -99q46 0 66 22q12 12 33 64zM-21 413q-4 3 -18 20q-12 14 -16 14t-12 -3q6 -11 6 -32 q5 0 20 1h20zM397 619l-8 -15l-8 3l8 15z" />
<glyph unicode="9" horiz-adv-x="756" d="M702 565q0 -218 -6 -262q-14 4 -46 36v55q13 5 35 16q-22 11 -68 33q-9 0 -9 -23h-22q6 25 6 22q0 7 -19 24t-22 25l-4 2q-10 0 -10 -9q-7 7 -15 22q25 7 23 7q28 -26 121 -36q2 6 2 14q-15 4 -53 26h19q4 4 4 10q0 7 -4 15q-9 -3 -27 -23q-27 2 -62 22q14 2 33 2 q13 0 28 -1q5 4 4 13q-29 12 -46 28h-21q-6 -7 -10 -14q6 2 22 2q6 -11 6 -17q-33 11 -51.5 11t-18.5 18q0 13 8 33q-1 26 -11 61q-16 -18 -37 -18h-44q-25 17 -79 49q8 16 8 27q0 28 -65 43q-6 14 -23 39h-3q-5 -5 -11 -17h-22q0 15 -12 23q-2 -13 -2 -35q-10 9 -10 24 q-9 2 -15 2q-5 0 -9 -1q10 -13 23 -36q-25 9 -52 17q-5 0 -12.5 -6t-13.5 -6q-8 0 -24 6t-25 6q-7 342 -7 348q0 153 88 257q93 109 243 109q132 0 225 -96t93 -228v-589l-38 9q-4 0 -8 -1q25 -39 40 -39q4 0 6 1zM428 624l-17 -8v9l14 7zM515 541q0 -14 -14 -28 q-7 17 -8 28h22zM281 756q-14 -30 -14 -27q-22 16 -38 20q6 7 6 21h33zM639 379l-3 -9l-38 13v9zM544 424q0 -15 -7 -22q-9 1 -45 40h20q6 0 32 -18zM123 768q0 -14 -16 -14l-6 21q15 0 22 -7zM124 691l-4 -8l-20 11l2 8zM246 585q-6 -1 -13 -1q-39 0 -86 45q45 -23 61 -23 q5 0 7 3t5 3zM696 277q-10 -125 -99.5 -205t-215.5 -80q-123 0 -216.5 89.5t-93.5 212.5v107h203q4 -44 15 -130q15 -80 98 -80q61 0 85 46q16 29 22 100q22 -9 33 -13q0 -11 4 -16q6 0 12.5 11.5t12.5 11.5q7 0 11.5 -5.5t9.5 -5.5q-2 0 25 5q12 -24 42 -41q33 0 52 -7z M495 1126q0 183 -114 183q-82 0 -106 -95q-11 -43 -11 -160q0 -207 19 -253q5 -12 27.5 -24.5t35.5 -12.5q103 0 132 93q14 45 14 177q0 15 1.5 46t1.5 46zM615 591q-3 3 -40 21v-22q9 -5 18 -5q11 0 22 6zM407 722h-11l-3 -21h10zM96 810l-15 14l-6 -6l14 -14zM576 245 l-7 17l-9 -4l7 -13h9z" />
<glyph unicode=":" horiz-adv-x="341" d="M320 824l-13 -52v6v13q0 24 4 59q9 -18 9 -26zM371 708q-4 9 -13 28q0 9 6 21q7 -16 7 -49zM333 763l-5 -4l-9 10l4 4zM278 804h-10v6h10v-6zM268 667q-15 -15 -23 -15h-22v2q1 3 -6 16q-23 -22 -32 -22q-4 0 -7.5 3.5t-7.5 3.5q-12 0 -12 -11q-9 3 -16 26q-2 -9 -7 -26 h-39l-12 13q4 4 19 12v63q-9 8 -23 8q21 3 24 32q-1 -9 -1 44q76 0 105 2l22 2q2 0 1.5 0h-0.5h-3q3 3 3 6q-2 3 -8 3q6 6 12 6q-1 5 -1 14q0 8 1 20q5 -2 14 -4q-1 -4 -1 -9t2.5 -15t2.5 -15q0 -11 -15 -41q6 -3 14 -3q0 -12 16 -115zM76 648q-22 -5 -38 -90q-7 -4 -13 -4 q-11 0 -18 41q-3 66 -13 197q0 5 -4 17.5t-4 18.5t2 18.5t2 18.5h18q13 -68 14 -71q11 -37 43 -54q-17 -8 -56 -38q25 -32 37 -32q4 0 5 2l4 2q3 -2 5.5 -8.5t6.5 -6.5q3 0 9 3v-14zM237 0h-134v145h134v-145z" />
<glyph unicode=";" horiz-adv-x="372" d="M268 652h-165v179h165v-179zM268 11l-30 -70q0 10 -8 18q-1 -18 -11 -55q0 5 -8 13l-7 -7q14 -21 14 -20q0 -6 -18 -40t-20 -47h-77l55 201q-9 2 -21 2q-15 0 -34 -3v181h31q4 -18 18 -55l6 3q-7 11 -7 27q0 -6 14 -23q-1 -2 -1 -5q0 -10 15 -34q9 11 9 21q0 6 -7.5 16.5 t-7.5 16.5v1l10 -13q9 9 15 9l9 -10l1 1v7q-8 8 -25 34q-3 -9 -14 -23q-7 10 -15 27h114v-173zM237 144l-5 5l-11 -11l5 -5zM238 129h-8l-5 -22h8zM187 38v12h-8v-12h8zM238 -40v12h-8v-12h8z" />
<glyph unicode="&#x3c;" horiz-adv-x="1031" d="M598 683q-13 25 -37 75q0 16 16 50q21 -39 21 -109v-16zM927 282q-31 10 -69 29l-1 -1l-386 183q8 8 24 25q-6 3 -10 4q-5 0 -12 -3q3 -6 3 -9q0 -4 -6 -15l-126 60v-12q-23 31 -56 46q4 5 12 17q-11 -11 -17 -23l-73 35v9q-13 -10 -15 -48q-7 -7 -12 -11v-6q0 -8 8 -26 q-27 -10 -29 -10q-16 0 -32 83q-14 68 -15 103q0 53 -10 159l9 -6l9 9h-20q3 18 7 55h38q4 -14 11 -42q10 -82 24 -82q90 38 97 44l3 2h-8q5 2 13 5l8 8l1 -5q53 19 74 31q41 22 47 51q7 -5 22 -15l487 231v-173l-473 -215q11 -5 11 -16q0 -5 -2.5 -15t-2.5 -16l-12 -2 q-2 -3 -6 -12q3 -1 5 -2l5 5v-3q6 3 18 4v-15q0 -20 -6 -31l451 -212q12 -22 12 -33v-139zM427 826q-1 -2 -3 -3h3v3zM350 855q-20 -5 -44 -4h-3l26 -24l-10 -18l5 -1q16 30 26 47zM452 703v5l-4 -2q3 -2 4 -3zM448 706h-1q-4 -3 -5 -6q3 4 6 6zM413 729q0 5 -12 18 q-8 -7 -26 -16l1 -3l-21 -7l-11 -5v-3q2 0 5 1q4 0 29 -11q-8 -4 -21 -11q5 2 9 2q-7 0 27 -4q6 10 19 31q1 4 1 8zM341 745q-13 10 -14 14q0 4 2 10l-14 2l-3 -25q13 -7 24 -20v17zM311 771l-2 1q2 6 2 11q0 4 -2 9l-5 -9q0 -2 1 -5q0 -9 -16 -23l9 -16v13q3 0 6 -1z M344 716v2l-1 -1l-1 -1l1 -1zM344 712v1v0v-1zM344 713l-1 2l-3 -1q-1 -1 -1 -2q2 1 5 1zM372 642q-7 2 -10 2t-5 -3l9 -9q2 4 6 10zM460 555q-9 3 -14 3l-10 -4q4 -5 8 -8q10 0 16 9zM337 676q-7 6 -14 18l7 -19h-10l6 -8q-2 -9 -10 -20q6 -1 10 -2l7 6q-3 5 -3 10 q0 7 7 15zM309 628q0 2 -2 7q-3 -4 -8 -10q5 1 10 3z" />
<glyph unicode="=" horiz-adv-x="1074" d="M631 936q0 -14 -15 -14h-16q18 10 31 14zM970 801h-479q-13 19 -13 48q0 11 2 31.5t2 31.5q0 4 -30 4q-25 0 -28 -21q-14 16 -31 16v-3q1 -18 -18 -56q-8 17 -25 48l-16 -64q-5 24 -33 43h-14q-3 -3 -6 -9q3 -4 8 -4q-1 -1 -2 -1q-3 0 -6 3l-8 -9q4 -3 14 -23q4 4 9 11 l14 -14q-20 -5 -20 -17q0 -6 3 -12q13 0 13 16q7 -6 13 -20h-209q-2 2 -2 29v38q0 56 5 85q5 -29 21 -89q4 0 7 3q-8 12 -8 31q0 -7 16 -25q-8 -15 -8 -12q0 -11 23 -34q11 13 11 23q0 7 -8.5 19t-8.5 20v1q4 -6 12 -16q10 11 17 11l10 -12q2 2 2 9q0 8 -12 21 q-16 16 -18 19q-3 -11 -16 -27q-9 9 -23 36q7 0 7 17q16 -8 22 -21q3 3 3 8q0 7 -5 18h363q0 -12 3 -15q4 7 7 11l12 2l-10 -11q10 -20 26 -62q4 -4 11 -4q12 0 29 16l16 -10q2 2 2 4q-1 6 -5 10q47 -9 34 -9q18 0 50 8q37 10 37 21t-10 39h248v-151zM425 874q-7 0 -19 -11 q0 20 6 31q13 -12 13 -20zM454 829l-7 -14l-7 3l7 13zM970 488h-665q-7 27 -7 43q0 8 3.5 23t3.5 23q31 6 28 6q6 0 23 -16h14l3 5l-3 5q-7 -4 -12 -4v14q51 8 64 53h548v-152zM404 640q-12 -36 -39 -36h-32q-5 0 -16 21l-19 -21q-14 -6 -33 -16q-31 21 -34 52h173zM237 578 h-7l-7 13l8 3zM291 524l-6 -36h-9l5 36h10zM262 491h-155v149h117v-36l-23 16l-8 -8q21 -21 27 -42q-5 -1 -16 -12q0 -7 18 -7q6 0 7.5 5.5t6.5 5.5q11 -9 26 -23v-48zM652 834v9h-14v-9h14zM629 839q-5 0 -42 18q-5 -4 -13 -8q10 0 28 -5t27 -5zM232 880l-6 5l-13 -13l5 -5 zM233 862h-9l-7 -25h9z" />
<glyph unicode="&#x3e;" horiz-adv-x="945" d="M842 634l-737 -348v161l276 124q0 -10 -3 -22q12 18 19 35l10 -1l-6 6q30 10 61 17l-5 6l33 21l1 -3l162 74q-20 13 -59 35q-4 -5 -11 -5q-11 0 -82 41v3q-69 17 -69 28l-318 148q-11 35 -11 61v105q21 -9 120 -66l9 7q67 -32 200 -96l1 -5q14 -1 37 -13q0 -16 -12 -31 l11 -10q12 19 34 51q0 -34 -4 -36q7 2 19 5q15 -14 15 -24q0 -6 -5 -12l10 -10q8 14 16 27l288 -135v-138zM656 772q-3 2 -6 2h-2l4 -4zM378 492q-7 5 -16 13q-3 -6 -6 -10q8 -5 9 -5q4 0 13 2z" />
<glyph unicode="?" horiz-adv-x="802" d="M1109 1569q-5 -5 -10 -5q-6 0 -13 6q2 5 9 15q9 -9 14 -16zM1073 1563q-42 0 -224 -25q-4 -1 -20 16q50 -4 38 -4q12 0 46 13t42 22q0 -15 2.5 -19t14.5 -4q7 0 18 11.5t17 11.5t6 -3l-1 -5l1 -4l11 12q11 -5 21 -5q11 0 21 5q7 -7 7 -22zM823 1541q-8 0 -25 -5t-26 -5 q-18 0 -43 10q14 7 35 15q9 -6 20 -18q5 6 5 11zM722 1524h-15v10h15v-10zM676 1543q-19 -13 -49 -27v11q19 5 49 16zM602 1527l-4 -6v1q3 3 4 5zM649 1405h-10v39h10v-39zM344 1633l-15 -14l-5 6l14 14zM161 1631q-14 -15 -28 -15q3 5 6 15h22zM734 1028q0 -16 -14 -46 q-4 15 -8 46h22zM91 1599h-2q-10 0 -50 -13q10 14 23 20q-2 3 -6 5q8 -2 35 -12zM804 778h-24q-26 0 -57 70q7 55 7 52q19 0 22 3l-27 45q-10 0 -10 5q0 6 12 18q66 -122 77 -193zM723 1065h-6q-18 -1 -37 5q-29 -30 -30 -104q-3 -93 -11 -116q-10 -10 -26 -30 q-8 -33 -27 -104q-7 45 -25 132q-15 -16 -15 -35q-8 8 -16 8q-1 0 -6 -1q3 -5 11 -9q-50 -125 -55 -170q-3 -17 -3 -202q-45 -4 -90 -4t-90 4v34q14 -9 31 -35q8 12 18 39q-1 9 -1 20q0 35 8 87q4 -23 22 -23q6 0 6 8q1 -8 6 -14l20 22v150q-7 7 -12 10q-8 1 -16 10 q16 0 22 -1q-10 4 -27 26q-15 -17 -15 -29q0 -7 4 -12h3q-5 -10 -14 -29v11v50q0 4 -10.5 14.5t-10.5 17.5t27 74q3 8 85 163q58 111 58 164q0 108 -76 108q-47 0 -92 -56q-39 -49 -50 -101q-102 42 -180 65v17h1q1 1 2 3q3 6 12 29q40 100 81 142q20 20 82 56q66 38 88 38 q5 0 12.5 -2.5t11.5 -2.5q4 3 4 11l13 -11q18 15 29 23q6 0 17.5 -3t17.5 -3q8 0 25 17q0 -12 5 -17q5 6 6 23q0 -11 17 -29q36 24 53 24q16 0 18 -5q-14 -12 -66 -20q-56 -8 -72 -19q213 -54 213 -159q0 -11 -3 -21q17 -9 28 -54q-8 24 -12 29q-9 12 -29 15q-4 -4 -4 -14 q9 -3 23 -14q-11 -6 -11 -16q58 -133 58 -152v-32zM368 737q0 -4 -2 -6zM352 702v0v-3l-1 2zM366 639q-5 1 -8 1q-4 0 -6 -3q0 21 6 53q0 -27 8 -51zM356 602l-3 -18v4q0 7 3 14zM494 0h-209v227h209v-227zM672 1317l-6 6l-14 -14l5 -6zM661 1253v15h-10v-15h10zM661 1089 l-8 17l-8 -3l7 -14h9zM649 1054l-7 6l-14 -14l6 -7zM634 929q-14 -3 -39 -12q0 -6 7 -16h26zM550 956l-9 3l-19 -32l8 -4zM514 896l-6 6l-14 -14l5 -7zM500 817v9l-48 -12v-9z" />
<glyph unicode="@" horiz-adv-x="1050" d="M1162 1295q-53 -28 -141 -87q-44 -90 -44 -113q0 -7 15.5 -34.5t15.5 -33.5q-66 -92 -66 -104q0 -6 2 -17.5t2 -16.5v-496q-19 -14 -76 -14q-47 0 -65 13q-8 15 -29 49q-3 -2 -54 -49q-34 -31 -63 -31q-84 0 -120 6q-1 0 -2 1q1 2 2 0q10 26 24 33q-14 10 -43 38 q33 7 43 29q-3 2 -39 29q-24 18 -41 18q-37 0 -43 -17l2 -20q-3 8 -3 14q0 4 1 6q-3 24 -11 79q-42 -32 -59 -71q-13 -44 -27 -88q-19 0 -38 -21.5t-19 -41.5q0 -99 68 -173t166 -74h34q64 0 204 80q9 0 114 -102q-45 -58 -127.5 -95.5t-159.5 -37.5q-9 0 -27.5 -3t-28.5 -3 q-36 0 -94 15q-120 31 -157 53q-33 19 -128 108q5 4 5 11q0 9 -14 38q-17 35 -19 41q-20 -17 -59 -65q17 -14 43 -45q-20 5 -18 5q-4 0 -16 -12q-25 19 -40 30q-18 -5 -55 -10q83 46 83 76q0 7 -2 13q3 -6 15 -17q14 25 30 49q8 0 11 -7q0 19 -3 57.5t-3 57.5v335l8 -12 q15 0 45.5 7t45.5 7q2 7 11 21l-10 10q-7 -19 -15 -19q-3 0 -7.5 3t-8.5 3q-10 0 -10 -12q-12 8 -21 25q-6 -6 -6 -16q0 10 -33 17v519q0 12 14 54q16 48 18 60q8 7 54 17q-12 6 -25 5q5 5 5 8q0 4 -10 4q20 41 90 90t115 54q24 1 72 4q19 11 25 11q211 0 298 -42 q118 -57 174 -238q7 -20 7 -184q0 -46 6 -110q33 31 33 58q0 13 -12 38.5t-13 38.5q15 30 30 59q16 36 14 63q63 35 159 100q-6 -7 -6 -13q0 -8 7 -15zM466 471l-7 -24l-9 3l7 21h9zM639 143l-7 -6l-27 27l6 7zM541 235l-9 -5l-14 22l8 5zM590 177h-9l-8 14l9 4zM652 1448 v17h-11v-17h11zM760 1152v35q-8 0 -30 -22q33 -13 30 -13zM760 1201q-3 64 -63 120.5t-125 56.5h-46q6 -6 6 -12q0 -2 -2 -7q-22 -31 -22 -45q0 -19 2 -32q15 -23 22 -39q-9 -26 -23 -73q14 6 39 21q9 19 7 53q9 -9 9 -49h22q21 22 33 22q1 0 6 -2l-12 -12q7 1 13 1 q43 0 96 -28v3q0 23 17 40q9 -19 21 -18zM495 1335q-6 0 -16 7q-10 -11 -45 -27q7 -8 7 -28q39 22 54 48zM504 1292h-11l-3 -23h10zM497 1158v23h-10v-23h10zM405 1220v29h-11v-29h11zM761 963q0 27 -13 52q-16 31 -40 31q-62 0 -81 -33q-14 -23 -14 -91q0 -19 3 -57.5 t3 -57.5q10 -8 31 -20q5 0 15 12q5 -4 5 -9q0 -6 -4 -12q16 -13 23 -34q10 6 29 15q-6 6 -6 12t4 10q12 -5 37 -13q8 9 8 195zM368 1228l-9 4l-8 -16l9 -4zM633 779h-9l-7 -20l8 -4zM563 784q-10 10 -16 15q-6 -6 -6 -18q0 -8 2 -18q6 7 20 21zM761 587q-4 5 -4 45v32 q0 26 2 91q-18 -11 -48 -26q-18 -1 -35 -3t-28 -20q8 25 8 39q0 7 -2 11q-24 -13 -35 -13v-175q0 -53 68 -53q62 0 74 72zM863 465q0 11 -1 19q-20 -10 -20 -24q8 6 14 6q5 0 7 -1zM522 775v17h-10v-17h10zM395 886q0 16 -15 30l-7 -23q15 0 22 -7zM588 890q-1 1 -5 1l-14 1 h-64l-8 -7q-20 0 -60.5 -3t-61.5 -3q-24 0 -40 15q28 14 64 29q6 -7 6 -19q29 43 29 56q-19 52 -19 60q-13 7 -28 7q-6 0 -8.5 -6t-9.5 -6q-11 0 -25.5 24.5t-14.5 37.5q0 15 12 27l-25 26q6 15 23 42q-6 24 -6 41q0 31 33 43q31 7 61 13v53q-20 4 -59 14q-22 -18 -49 -63 t-27 -70v-264q0 -18 -2 -54.5t-2 -54.5q0 -35 2 -113q-14 -11 -60 -27h4q10 1 56 -14v-10q0 -25 14 -63v-127q-15 -11 -36 -34q5 1 8 1q22 0 22 -18q0 -8 -5 -20q51 26 51 66q0 16 4 39q22 36 92 89q-8 0 -24.5 -2t-25.5 -2q-25 0 -74 64q5 0 47 -27h25q4 14 13 31 q10 0 21 -10q-2 -9 -6 -26q6 0 17 -7q0 35 -2 63q5 12 46 19q-5 12 -16 29q-4 -8 -18 -8q-5 0 -10 1q-1 20 -4 21q-2 -1 -1 -2q-13 0 -34.5 -9t-27.5 -9q-19 0 -24 -1l-1 -1l3 -1q-15 3 -16 35q14 9 19 20.5t9 15.5q13 -12 19 -12q4 0 8 3t7 3q5 0 12 -37q32 34 32 40 q0 10 -11.5 25t-13.5 21q-3 -10 -12 -31q-25 36 -25 47q0 13 15 13q5 0 10 -1q-5 0 -5 -28q4 6 14 19q12 -13 18 -13q13 0 25 13q12 -12 21 -12q0 6 4 12q6 -6 6 -22q0 6 7 9q-1 5 -1 -10q1 -2 6 -2q10 0 10 5q0 3 -3 7q6 -5 6 -12q0 6 6 12q13 -18 15 -18q4 0 7 3t6 3 q7 0 14.5 -9.5t12.5 -9.5q-1 0 21 7v72h1zM773 476l-73 7v-46q7 -4 20 -14q16 20 53 53zM274 922l-4 9l-14 -8v-9zM221 910q0 66 -13 99q-6 -27 -25 -80q2 -3 2 10q-2 2 -8 2q-14 0 -14 -7t-3.5 -22t-3.5 -23q8 -13 22 -47q0 59 1 63q3 0 8 -1h15q2 0 13 18q5 -5 6 -12z M254 832q-9 17 -9 32q0 -16 -15 -32h24zM146 911v17h-11v-17h11zM220 834v10h-26v-10h26zM161 352v11h-17v-11h17zM705 936q-12 -6 -18 -6l8 36q10 -10 10 -30zM705 851q-18 -14 -18 -24q2 -4 2 -7q0 -5 -4 -7h-10q-1 9 -14 37q-11 24 -11 35q0 14 3.5 42.5t3.5 43.5l16 -6 q7 -11 7 -20q0 -5 -14 -32q5 -17 39 -62zM645 890l-7 -6l-15 15l7 7zM694 794l-15 -15l-6 7l15 15zM656 818l-3 -9l-16 8l3 9zM349 1000l-8 -16l-8 3l7 16zM359 818q-9 -2 -29 -6q0 20 21 30q8 -8 8 -24zM388 688q-4 -33 -27 -36q-8 29 -8 31q6 -6 10 -14l19 24q4 -1 6 -5z " />
<glyph unicode="A" d="M139 1606q1 -55 -16 -161t-17 -159q0 -31 3 -59q-5 36 -16 109q-2 7 -4 15l-1 -4q1 6 21 106q11 53 30 159v-6zM893 407q0 -16 -7 -23q-6 0 -21 29q7 -6 28 -6zM778 294q-28 29 -28 39q0 5 15 21q2 -4 13 -60zM833 0h-233q-28 179 -56 325q-120 11 -212 11q-29 0 -36 -26 q-2 -7 -3 -49q0 -15 -3 -25q-8 -56 -24 -162q-4 -27 -22 -36l11 -4v-34h-227l84 506q-16 7 -89 51q-38 23 -114 54q-61 22 -181 70q-7 3 -30 25q-18 17 -36 17l-10 13q1 3 1 4q0 8 -11 7q22 10 55 10q18 0 76.5 -48t79.5 -48q88 0 184 -90q20 0 45 16l-18 18h38l13 1 q5 0 5 1l10 10l1 4q0 13 -75 40l-4 -16l-2 2q4 -6 7 -15q-9 1 -13.5 -4.5t-4.5 -14.5h-22q-3 4 -31 32q-24 24 -24 31t6 13v34q-4 4 -13 4q-20 0 -18 -28h-36q10 1 24 7q-16 27 -42 43q7 -1 16 -1q22 0 57 8l-24 24q31 -16 44 -29q-1 11 -1 36q35 -18 50 -18q6 0 12 6t12 6 q8 -4 29 -12q2 2 2 4l-9 19q25 7 23 7q7 0 16 -18q5 3 9 11q11 0 28 -23q31 110 31 163q0 6 -23 50q-25 48 -29 60q-10 33 -13 85q1 30 -5 87q3 -5 22 -112q16 -89 50 -134l95 541h293q2 -11 183 -1043q9 -11 16 -11q-6 -14 -6 -46h-4q-15 2 -43 -17q6 -20 25 -39l-3 7v-16 q0 -46 18 -87l8 4q-9 14 -9 36q1 -8 19 -30q-1 -5 -1 -10q0 -23 21 -43q14 -70 41 -214zM-202 777l-65 25l28 9q13 -11 37 -34zM-184 719h-16v10h16v-10zM-376 783l-14 -14q-20 9 -45 42q40 -24 41 -24q7 0 7 3q-1 3 -4 6q5 -5 15 -13zM-455 797l-34 6v11l34 -7v-10z M514 1489v10h-22v-10h22zM497 640l-75 484l-69 -442q-1 -11 15 -29q20 -23 21 -25q-6 -6 -24 -6q25 -12 24 -23q-15 -5 -36 -15q10 0 30.5 2.5t30.5 2.5q0 -8 -7 -14l24 -15q0 -6 -12 -18h29v5q0 18 19 48q15 22 30 45zM727 423q-7 4 -44 35q-33 28 -39 28q-10 0 -32.5 -6.5 t-34.5 -5.5h-4q3 -10 4 -17q7 2 12 2q10 0 16 -7q-4 -14 -4 -29v-9q0 -6 1 -18q13 27 19 42q28 -6 28 -36q0 -3 -1 -5q20 7 15 7q2 0 3 -1q-15 11 -19 20l10 9q5 -4 15 -10q3 4 9 10q4 -6 6 -12q-5 33 -5 30l14 -16q0 -6 -2.5 -18.5t-2.5 -18.5q8 2 22 6q0 10 -2 29 q5 -3 16 -9zM710 373v22h-11v-22h11zM674 361l-7 34h-10l6 -34h11zM680 331v28h-11v-28h11zM589 415v34h-10v-34h10zM692 341h-10l-4 -22h10zM560 479h-11l-6 -34h10zM361 626v28h-11v-28h11zM800 138v16h-10v-16h10zM406 544v11l-52 -6v-11zM611 314q-10 15 -10 36 q0 8 1 16q0 -6 -12 -18l-24 24q3 -24 5 -36q28 8 28 -16q0 -8 -4 -20zM436 440q0 12 -15 28v-12q0 -10 1 -21q5 3 14 5zM147 756h-28v-22h21q7 6 7 22zM403 405l-9 3l-7 -15l8 -4zM4 703l-23 8v-9l20 -7zM27 681q-5 5 -14 10q-15 0 -15 -23q10 5 29 13zM78 24v16h-11v-16h11 zM659 439h-22q-12 19 -25 19l14 16q21 -10 33 -35zM461 629q-2 -10 -8 -16q-14 0 -28 28q10 0 36 -12z" />
<glyph unicode="B" horiz-adv-x="876" d="M957 752h-9l-7 14l8 4zM975 734h-9l-7 14l8 4zM963 728h-10v16h10v-16zM939 722h-10l-7 28h10zM975 656h-9l-7 14l8 4zM860 764h-10v16h10v-16zM880 733q-2 3 -9 6q-4 -3 -4 -9q0 35 -2 39q8 -8 15 -12v-24zM945 632h-9l-7 21l8 3zM872 699l-16 -15l-5 6l14 15zM879 658 q-5 -5 -5 -21q-2 6 -7 12q-7 -8 -21 -16q4 4 6 10l-9 6h11v15q1 -4 7 -15q6 2 18 9zM822 404q0 -157 -67 -269q-81 -133 -228 -133h-424v287q9 -1 18 -1q45 0 65 23q-23 81 -28 93q-21 53 -54 80q-2 7 -2 47q-48 13 -70 42q-12 17 -33 75q12 1 27 -26q23 -40 29 -46 q23 -14 45 -29v958h312q386 0 386 -379q0 -233 -152 -342q51 -51 64 -51q-2 0 20 11q0 -10 -11 -20q103 -85 103 -320zM35 952q-8 -9 -8 -15q-21 21 -21 29h22q3 -7 7 -14zM34 909q-3 -13 -15 -36q-69 -18 -69 -86q0 -15 6 -29h-4q-11 0 -37 -12q0 27 -19 56q58 69 57 69 q4 0 6.5 -3t5.5 -3q6 0 18 24l12 -12q12 19 39 32zM-15 685q0 -6 -1 -12q-11 10 -34 32l8 34q27 -15 27 -54zM-75 662l-41 7q11 17 28 46q0 -12 13 -53zM-29 584h-11v28h11v-28zM110 393h-11v28h11v-28zM568 1102q0 66 -22 118q-29 70 -85 70h-128v-143q8 6 27 39 q13 21 41 21q26 0 76 -51q-3 -4 -29 -21q-18 -12 -19 -29h6q15 -1 20 5q4 -10 4 -21q0 -12 -5 -25q29 -17 29 -35q0 -11 -4 -15h-5q-24 1 -39 -8q0 -41 -10 -82q-8 2 -21 10q13 45 8 64q8 11 21 11v22q-7 -2 -13 -2q-22 0 -35 26q-27 0 -53 -13v-21q20 5 18 5q10 0 18 -12 q-8 -6 -35 -20v-39q15 17 34 17q17 0 37 -15q-2 -11 -10 -33q-38 6 -61 17v-58h82q12 35 31 35h2q13 -12 23 -18q46 0 75 80q22 63 22 121zM354 1116q-13 -12 -21 -12v-41q21 29 21 53zM485 626v16h-11v-16h11zM448 618l-15 15l-6 -7l14 -14zM509 440v17h-10v-17h10z M592 433q0 14 -4 42t-4 42q-12 -12 -22 -12q-13 0 -13 13q4 0 6.5 -3.5t9.5 -3.5q14 0 14 34q0 15 -40 74q0 -13 -5 -18q-5 6 -3 10q0 13 -18 27.5t-32 14.5h-4q10 -10 15 -19q0 6 6 9q9 -8 9 -24q0 -6 -5 -6q-27 0 -18 1q4 4 7 4q4 -1 5 -5l-6 -6q6 -18 6 -22q0 -8 -7 -18 q12 0 12 -16q0 -3 -16 -34q-5 6 -6 12q4 -21 14 -54q0 12 5 12q18 0 18 -45q0 9 7 16q20 -5 20 -11q0 -1 -4 -8t-4 -10q0 -9 19 -19q5 7 15 18q1 -7 0 -19q-1 -14 -1 -19q9 -10 13 -17q3 0 -19 5q6 -6 6 -10t-3 -6q-17 18 -17 30q5 -6 5 -12q-2 10 -5 29q-11 -5 -26 -35 q-13 11 -32 29q4 -6 4 -17q0 -8 -2 -18l-2 4v1q3 1 8 1q22 0 22 -19l-27 -6q-12 13 -12 24q-7 -5 -19 -17q-6 5 -7 11q0 -24 10 -31q-15 0 -15 11q0 -18 -22 -18q26 -4 26 -28q-5 6 -5 13q0 -13 -5 -18q-5 4 -5 17q-7 -9 -19 -23q-6 13 -6 23q0 6 2 11q-6 0 -12 5 q14 13 27 36q0 -6 -6 -9q-12 15 -30 47q2 -6 2 -13t-2 -16l-1 1q-4 0 -11 -7q-2 4 -9 15q7 7 10 14q-6 -3 -18 -12q7 16 7 19q-1 1 -2 0q-5 2 -15 10v28l10 58q11 -12 11 -22q0 15 12 27q6 -5 7 -12q0 13 5 18q6 -5 7 -12q0 22 8 26q0 36 -1 59l2 2q-1 9 2 21q5 -5 15 -10 q-15 15 -15 25q0 -5 -5 -9q1 7 6 18.5t5 14.5q0 -5 -6 -9q-1 12 -5 36h-82v-461h111q77 0 117 76q32 61 32 145zM570 548h-11v16h11v-16zM527 572h-9l-7 14l9 4zM570 518h-9l-8 15l9 3zM509 279h-9l-7 14l8 3zM430 281l-7 -16l-9 4l8 15zM448 237h-8l-8 14l9 3z" />
<glyph unicode="C" horiz-adv-x="853" d="M495 1702h-8l-7 14l8 4zM774 470q0 -472 -345 -472q-158 0 -257 113q-94 108 -94 268q0 5 8 485q3 -4 7 -29q3 -21 23 -35q12 15 12 26q0 8 -9.5 21.5t-9.5 20.5v2q5 -6 13 -17q11 11 19 11l11 -12l2 1v9q1 7 -13 22q-17 19 -19 22q-2 -11 -11 -30q-21 0 -25 20 q-1 1 -1 38q17 -8 25 -23q0 54 15 68q-18 22 -41 15v201q0 18 12 74.5t19 67.5q14 17 39 51q-7 10 -23 60q16 6 41 18q-5 10 -11 29q15 4 31 25q24 -18 65 -53q39 19 45 61q29 13 29 47q0 10 -2 29.5t-2 29.5q0 12 8.5 38t6.5 40q26 0 63 12q0 -10 -11 -42q19 -17 34 -17 q-1 -25 33 -46q6 3 15 11q1 4 -10 16.5t-13 17.5q8 8 20 8q6 0 38 -32q-14 -32 -20 -32q-16 0 -21 -4v-22q8 -2 20 -6l19 -33q22 3 65 11q-5 -34 -34 -34q-8 0 -14 6l-15 -15l4 -7q259 -76 259 -361v-137h-69q-5 34 -80 63q-1 1 -2 1q-4 -1 -7 -4q8 -14 27 -38q3 0 19 5v-27 h-21q0 12 1 17q-5 -2 -15 -13q-5 -5 -31 -5q-39 0 -47 77q-13 127 -18 144q-25 77 -105 77q-127 0 -127 -224v-255q1 19 -13 27.5t-34 7.5l-7 -10q3 -4 9 -4q-1 -1 -2 -1q-4 0 -7 3l-9 -9q6 -5 15 -26q4 4 11 12q5 -5 15 -16q-22 -6 -22 -19q0 -6 3 -13q10 0 10 13l-2 4 q34 -26 34 -59v-173q-3 6 -14 17l-22 -23q-12 -3 -36 -18q-18 2 -47 88q-5 -17 -5 -34q0 -18 6 -36q-7 3 -25 17l-9 -9q23 -23 29 -46q-5 -2 -17 -13q0 -8 20 -8q7 0 8.5 6t6.5 6q6 0 27 -25v-5q0 -25 17 -76q8 7 14 11q0 -28 -2 -40q3 8 11 23l12 -11q5 3 4 14l-1 11l-9 10 q-5 -1 -5 -6q3 32 5 65q7 38 30 52q2 -4 2 -81q0 -241 126 -241q58 0 91 41q30 38 30 97v193h220q7 -23 7 -70zM197 526h-9l-7 14l9 3zM255 466l-13 -41l-8 3l13 38h8zM446 1568v20q-6 12 -14 34q-12 8 -36 21l-8 -15q0 -7 10 -26.5t10 -28.5q2 0 4 1q5 0 16.5 -3t17.5 -3z M446 1554q-14 -4 -40 -14q31 -2 27 -2zM399 1562q-10 20 -33 45l-6 -57q30 15 39 12zM387 1509q0 16 -25 29q-13 -6 -26 -34q27 5 51 5zM598 1063h-28q3 -8 8 -23q5 9 11 10l6 -3q3 6 3 16zM213 1436q-8 4 -70 13v-28q7 0 18 -11t14 -13q16 16 38 39zM191 860l-6 6l-15 -14 l6 -6zM192 840h-10l-7 -27h10zM127 725v16h-10v-16h10zM191 626v15h-10v-15h10z" />
<glyph unicode="D" horiz-adv-x="858" d="M335 1661q-3 -15 -47 -39q21 -38 21 -50v5q1 3 -0.5 10t-1.5 10h-36v32q0 59 1 63q7 -3 24 -19.5t22 -16.5q4 0 17 5zM98 1281l-8 -16l-8 4l7 15zM804 375q1 -119 -62 -223q-70 -114 -180 -136q-14 -3 -44 -9l-17 -4q-10 -2 -7 -3h-391v901q-3 2 -5 2q-3 0 -6 -3 q0 11 10 21q-42 33 -42 120q0 16 11 57q13 49 15 60l12 -12q4 13 4 72q0 101 -17 139q-4 -1 -10 5q-13 -23 -13 -47q0 -26 15 -54h-39l-11 11q-11 -25 -36 -42q-12 6 -36 30q-17 -15 -25 -61q-5 -36 -10 -71q-19 15 -19 41q0 5 15 64q-16 27 -16 24q0 15 2 45t2 45 q0 12 -6 36t-6 36q0 2 7 57h21l17 -18l18 36q6 -11 6 -25q0 -19 -9 -43q5 -4 15 -4q22 0 27 15q0 2 2 33q12 -6 43 -6q26 0 61 66v-24h388q125 0 219 -108q90 -104 91 -231zM-88 1063h-10l-6 46h10zM-30 298l-14 -16h-33q7 11 19 24zM-10 1401l-9 3l-7 -15l8 -4zM576 476 v152q-23 12 -21 43v13h5q14 -34 13 -42l1 386q0 9 0 7q-4 74 -12 138q-2 21 -26 55q-43 61 -121 61q-12 0 -25 -1q11 -14 28 -34q0 12 8 12q10 0 18 -9q-13 -6 -39 -21q-11 0 -24 54q-5 -15 -23 -36q-10 19 -26 36v-144q2 12 16 12q5 -3 12 -10q-11 -33 -29 -46v-75 q12 0 23 -9q-6 -3 -23 -18v-790h91q154 0 154 266zM104 1069v70h-10v-70h10zM101 1008v35q-5 0 -17 -7q0 -13 17 -28zM380 1215l-8 -16l-8 4l8 15zM428 1161l-8 -16l-8 4l8 15zM564 943l-19 -10l-4 26q23 0 23 -16zM440 1033h-10v22h10v-22zM470 829h-10v40h10v-40zM548 739 h-10v34h10v-34zM554 709h-10v22h10v-22zM389 743l-6 -28q-15 0 -23 7l7 27q8 -2 22 -6zM374 571h-10v16h10v-16zM426 417q-25 -25 -45 -25q15 14 36 40q2 -5 9 -15zM344 433h-10v16h10v-16zM359 370h-16v10h16v-10z" />
<glyph unicode="E" horiz-adv-x="837" d="M469 1235h-11v16h11v-16zM31 1667h-11v22h11v-22zM554 1076l-8 -16l-9 3l8 16zM31 1559h-11v16h11v-16zM462 1037h-10v16h10v-16zM31 1409h-11v70h11v-70zM31 1400l-8 -16l-9 3l8 16zM359 965h-10v34h10v-34zM576 592l-3 -6q-6 -3 -6 -9q-1 11 -1 21v18q10 -16 10 -24z M738 5h-559q-7 -7 -7 -15q0 15 -10 15q-7 0 -7 -12q-19 13 -41 13q1 5 1 10q0 15 -13 21q13 10 12 31l-10 585q-13 -14 -8 -39q-8 -3 -24 -3v11q0 7 2.5 20.5t2.5 19.5q0 7 -17.5 8.5t-17.5 14.5q3 -1 6 -1q8 0 23 8q-6 7 -11 7l-4 -2l11 15q6 2 12 12q4 -9 14 -24 q10 8 10 23q0 11 -6 26q4 0 -13 -12v22q19 14 19 29q0 13 -14 26l-16 -12q-1 26 -26 83q16 0 27 10q-3 -3 -3 -30q0 -20 17 -45h15q11 15 11 51q0 5 -3.5 15.5t-3.5 15.5l2 5q-3 27 -10 27t-15 -4q24 45 24 130q0 37 -5 82q10 8 10 33q0 8 -2 25t-2 25q0 27 2.5 80.5 t2.5 80.5q0 68 -11 123h630v-214h-387v-399l9 -10h75q17 0 27 12l8 -8q26 -4 111 -4q54 0 64 30q0 -5 -8 -18t-8 -20v-201h-50q-6 -10 -6 -48q-10 18 -10 43q-17 4 -34 4q-20 0 -41 -5q-9 -8 -9 -13q0 -3 10 -11q-4 4 -10 4q-10 0 -10 -5v2q1 6 -8.5 15.5t-11.5 13.5 q-6 -9 -18 -24q0 18 -6 24q-11 0 -11 -22q0 10 -8 10q-5 0 -14 -4q13 -12 13 -21t-25 -21q9 -5 24 -17q-4 -11 -18 -23t-14 -24q0 -5 1 -11q-1 9 -8 30q-2 -8 -16 -22v-337h394q-3 -28 -3 -80q0 -53 3 -130zM6 1073h-10v22h10v-22zM469 539h-11v70h11v-70zM444 575h-10v34 h10v-34zM69 935q-5 3 -15 6q0 7 15 35v-41zM97 903l-6 -6l-15 15l6 6zM447 524l-34 6v11l34 -7v-10zM98 891l-7 -46h-10l6 46h11zM395 545h-9l-7 21l9 3zM402 536l-8 -16l-9 4l8 15zM462 445l-6 -8l-28 24l7 8zM392 500h-22v11h22v-11zM88 1144q0 -24 -8 -24q-6 0 -11 6 q0 -1 -1 -1q-1 -3 -1 -5q0 -5 2 -12q-9 0 -30 6q-14 -27 -14 -51q0 -26 16 -48l-7 -7q0 -96 -3 -251q-4 -207 -5 -251q3 -7 9 -19l-9 -176q3 4 3 7q0 5 -9 5q-7 0 -15 -6q2 29 2 55q0 25 -2 47q-5 -2 -10 -10q0 6 9 24q-4 2 -14 10q-7 -21 -20 -54q-8 31 -8 32q0 5 34 51 q0 -11 -10 -21q6 -1 15 -9q10 -1 10 12v169q-8 -3 -24 -6l5 31l-10 10q-8 -5 -14 -5v76q19 19 24 19q6 0 8 -3l2 -9q13 9 13 39q0 6 -4 46q-5 0 -12 1q18 38 18 134q0 30 -5 41q4 14 4 23t-4 14q9 16 12 164l2 180q6 -81 6 -150q0 -55 -4 -103q-1 -1 -1 -2q0 -3 11 -3 q14 0 50 24zM61 791h-10v34h10v-34zM-91 833h-10v16h10v-16zM94 569q-10 1 -28 1l7 28q7 -6 21 -6v-23zM-91 659h-10v76h10v-76zM-87 651q-8 -11 -8 -16l-16 16h24zM-12 536l-8 -16l-8 4l7 15zM92 413h-11v17h11v-17zM92 275h-11v17h11v-17zM-85 413h-10v46h10v-46zM98 182 l-8 -16l-9 4l8 15zM-85 311h-10v17h10v-17zM33 129q0 -26 -7 -64q0 17 -5 64q-5 40 -5 64v40q0 58 2 71l12 -7l1 -24q0 -31 -5 -103q7 -15 7 -41zM-79 270h-9l-7 14l8 3zM-85 144h-10v22h10v-22zM25 365v23h-11v-23h11z" />
<glyph unicode="F" horiz-adv-x="813" d="M677 1978h-11v16h11v-16zM671 1936h-11v16h11v-16zM664 1906h-11v22h11v-22zM658 1892l-7 -40h-11l7 40h11zM756 1630h-12v262h12v-262zM690 1729l-8 -16l-9 3l8 16zM653 1743q0 -12 -12 -35q-8 6 -26 6q-5 -5 -5 -12q0 -12 19 -29h-4q-6 0 -12 4q-15 -9 -33 -71 q29 159 61 197q-9 -24 -25 -74l11 -10q12 9 26 24zM423 1207l-8 -16l-9 4l8 15zM1009 498h-11v22h11v-22zM1009 352l-8 -24l-9 4l8 20h9zM957 366h-11v16h11v-16zM990 252h-11v22h11v-22zM759 1288q-298 0 -305 -5h-104v-401h298v-211h-299v-671h-246v1497h243q17 0 71 8 q49 7 66 5l57 -7l16 52q13 34 27 44q-23 -53 -32 -92l12 -10q82 0 196 6v-215zM957 264h-11v22h11v-22zM1009 114h-11v16h11v-16zM1009 0h-9l-8 15l9 3zM302 1408v27q-2 -9 -11 -9q-7 0 -8 6t-8 6q-15 0 -15 -7v-29q3 1 5 2q-2 0 19 -7q0 13 4 17q6 -6 14 -6zM307 1274 q0 39 -4 109q-12 0 -29 1l-19 -18q-12 7 -29 20q26 14 26 40q0 16 -15 29h-87q-1 0 -2 -1q-7 -5 -7 -19q0 -8 16.5 -30.5t16.5 -29.5q0 -5 -31 -54q-2 -15 -2 -39q0 -67 52 -87q-20 -11 -32 -11q19 -25 62 -82l24 39q-11 45 -11 61q0 29 19 44q18 -16 30 -24q11 0 19 8 q3 11 3 44zM239 1044l-16 16q-10 -9 -16 -17h4h5q10 0 23 1zM261 1301h-12v52h12v-52z" />
<glyph unicode="G" horiz-adv-x="895" d="M190 1736l-3 -22h-10l3 22h10zM153 1630q-20 -40 -20 -52q0 8 -1.5 23t-1.5 22v7h23zM146 1660q-15 -11 -46 -37q15 -7 17 -38q-13 0 -13 -7q2 5 2 10q0 7 -5.5 19.5t-5.5 18.5q0 11 11 20l-8 11l28 -14q7 5 20 17zM202 1523l-8 -15l-8 3l8 15zM164 1521q-19 0 -26 -13 q-1 5 -8 16q19 0 19 19q8 -7 15 -22zM114 1564l-7 -15l-9 3l8 15zM179 1474h-10l-7 39h11zM149 1480h-10v16h10v-16zM136 1491q0 -8 -15.5 -26.5t-17.5 -26.5v5q1 17 -7 100q19 -19 28 -19q-6 -4 -18 -14l5 -20q5 6 17 18q8 -20 8 -17zM38 1480h-10v21h10v-21zM120 1414 l-13 -41l-9 3l13 38h9zM-61 1550h-11v16h11v-16zM-143 1521h-10v21h10v-21zM791 1025h-227q0 10 2.5 31t2.5 31q0 228 -123 228q-84 0 -110 -79q-14 -42 -14 -149v-647q-14 10 -40 29q4 -1 18 -1l-4 19q-3 -3 -7 -3q-5 0 -10 3q-6 -6 -6 -27q0 14 -7 21q1 0 -27 12 q-3 -4 -7 -12l3 -2q-15 28 -41 39q6 6 10 24v-22l9 -4l10 9q-7 7 -11 13q11 6 17 6q-8 -13 -8 -23q0 -13 12 -23q10 0 14 4v39l-44 22q-10 0 -24 -14t-14 -24q0 -38 20 -38q-2 0 20 5l1 3v1v-1v-3v-11v-50q0 -6 4 -13.5t4 -10.5q-8 -4 -7 -15v-6q7 -8 26 -28q13 0 31 20 q-6 7 -15 7q-5 0 -12 -3v2q0 8 12 32q5 -2 18 -29q6 3 6 9q3 -9 8 -26q-7 0 -29 -11v-15q10 -8 23 -29q-58 2 -98 2v53q-7 4 -14 11q-12 -12 -35 -40h-33v164q0 34 5 113q3 38 15 38q4 0 6 -3t6 -3q20 0 20 30q0 14 -23 26l12 12q-7 2 -21 9q-6 -5 -6 -27q-8 25 -8 84 q20 0 31 -5q3 7 3 16q0 11 -5 27q-2 2 -5 2q-4 0 -10 -4l-9 4l-2 -2q7 -10 19 -30q-2 5 -14 16q-6 -5 -6 -14v489q0 -10 16 -15q0 17 5 22q0 8 -23 8q0 38 12 70q-1 -13 -7 -38q5 -5 16 -15l-5 3q-8 -2 -8 -9q0 -3 1 -6q4 3 62 86q48 68 94 88q113 49 174 49 q149 0 250 -99.5t101 -248.5v-153zM9 1339h-10v16h10v-16zM32 1246h-10v39h10v-39zM23 1143h-15v10h15v-10zM-21 1162l-7 -23l-8 3l7 20h8zM15 1029h-10v16h10v-16zM-41 900h-16v10h16v-10zM787 19h-106q-21 52 -29 93q7 -8 20 -23q13 8 38 21l1 12q0 35 -12 64q2 11 8 34 q-3 5 -13 15l-50 -34v-44q6 -2 16 -10q9 5 25 5q0 -22 -11 -22q-20 0 -94.5 -67.5t-125.5 -67.5h-49q-116 0 -184 59q-61 52 -100 169q-3 -14 -19 -40q2 20 16 54q-5 5 -11 5v74q33 -17 33 -51q0 -11 -5 -21q17 -11 27 -34q6 -16 26 -16q4 0 6.5 3t5.5 3q6 0 14 -15.5 t36 -22.5q11 -3 17 -3q24 0 53 26t34 50q71 -35 86 -35q129 0 129 226v146h-134v189h352v-742zM255 467l-8 -16l-8 4l7 14zM-29 682q-8 0 -23 9l-16 -5v22q13 -11 16 -11q8 0 8 12q5 -11 15 -27zM-10 633l-4 -8l-15 7l3 9zM14 611l-15 -15l-5 7l14 14zM41 585 q-5 -11 -15 -27v-3q-1 -7 1.5 -19.5t2.5 -18.5q-5 -3 -16 -6q0 40 -19 40q-10 0 -16 -6q0 16 1 24q0 3 2 6v0q7 -12 39 -12q8 0 12 10t8 12zM-41 587q-17 0 -34 33q11 0 11 4q-1 4 -5 8h22q0 -9 -11 -20q17 -16 17 -25zM294 261q0 -8 -18 -17q6 -5 11 -5q-5 -11 -18 -32h-34 q12 22 21 22q6 0 8 -3l1 -3q7 24 7 70q22 -11 22 -32zM32 490l-7 -16l-9 4l8 15zM252 279q0 4 -2 9l1 -5q0 -5 -5 -35q-14 0 -22 -1q2 2 17 14q11 8 11 18zM-8 519h-32q8 0 27 20q0 -20 5 -20zM-64 570q-7 5 -12 5q-7 -21 -7 -53q-1 5 -2 39v25q8 -5 21 -16zM-40 564 q-10 1 -15 -34l-8 -55q-12 23 -12 62q21 21 21 27q0 5 -3 10q11 -4 17 -10zM61 408l-7 -16l-8 4l7 15zM-155 505h-10v22h10v-22zM-126 437l-7 -15l-9 3l8 15zM120 148h-10v16h10v-16zM111 107q-21 10 -21 33h21v-33zM77 131q-7 3 -14 10q-4 -5 -4 -11q-9 3 -29 8q17 4 39 15 q0 -14 8 -22zM-152 341h-16v22h16v-22zM-202 376h-10v16h10v-16zM120 25h-10v28h10v-28zM21 146l-7 -27h-10l7 27h10zM-173 265h-10v22h10v-22zM-202 277h-10v21h10v-21zM-52 106q-5 1 -19 1q-1 -15 -1 -39q-3 14 -14 55q12 0 34 -17zM-149 145l-8 -16l-8 4l7 15zM-155 19 h-9l-7 14l8 3zM685 441q0 6 -21.5 22.5t-29.5 16.5q7 -46 34 -46q-2 0 17 7zM136 893q-6 6 -21 6q6 0 9 -6q-5 -5 -5 -19q4 6 17 19zM114 862v16h-10v-16h10zM131 842l-14 15l-6 -6l14 -15zM139 733v26q-1 -9 -5 -9h-3q-7 0 -7 5q0 4 2 7l-7 -29h20zM322 164q-5 -2 -11 -2 q-5 0 -11 2q5 -7 14 -17q5 6 8 17z" />
<glyph unicode="H" horiz-adv-x="913" d="M1085 1380h-22v11h22v-11zM962 1476l-8 -16l-8 4l8 15zM1010 1378h-10v22h10v-22zM962 1386l-8 -16l-8 4l8 15zM854 1456h-10l-6 52h10zM886 1544l-7 -227q-14 21 -32 58q7 1 14 11q0 -10 8 -15q8 14 8 34q0 9 -2.5 26.5t-2.5 26.5q0 22 10 37q-7 7 -24 23zM726 1586 q-5 4 -15 13q-10 -10 -10 -17h-22q0 17 -16 17l-12 -6q-3 0 -4 15l-1 3q-5 -6 -5 -11h-17q10 5 27 17q51 0 75 -31zM841 1407l-4 -9l-20 8v9zM842 1360h-10v16h10v-16zM609 1605q0 12 -42 12q-11 0 -33.5 -2.5t-34.5 -2.5q-2 7 -6 22q16 -1 23 -1h15q35 0 42 8 q28 -15 36 -36zM926 1240h-10v16h10v-16zM962 1132h-10v40h10v-40zM888 1260q-7 -27 -7 -81q-13 0 -23 10q18 0 18 17q0 38 -48 47q7 7 16 7q8 0 16 -4q5 6 5 12q16 0 23 -8zM483 1620q-25 -9 -24 -9q-11 0 -17 18q-5 -6 -5 -12q-20 5 -37 5t-32 -5l-14 16q9 0 26 1t26 1 q5 0 8 6t9 6q7 0 29.5 -13.5t30.5 -13.5zM884 1154l-6 -40h-10l6 40h10zM1052 879h-10v17h10v-17zM884 976h-10v22h10v-22zM878 736h-10v64h10v-64zM1100 531h-10v23h10v-23zM1053 593q-3 0 -10 1.5t-10 1.5h-5q3 0 -13 -11q0 6 8 23q4 -4 9 -4q7 0 16 10q0 -21 5 -21z M842 751l-7 -23l-9 3l7 20h9zM878 716l-3 -46h-10l3 46h10zM984 574q-7 4 -14 11q-6 -12 -21 -18q8 23 8 56q0 -22 27 -49zM1056 523q-9 -10 -29 -28q3 10 11 26q-7 8 -11 15q13 -4 29 -13zM1016 544l-15 -15l-6 6l14 15zM830 700h-9l-7 14l9 3zM986 539l-8 -3l-14 29h9z M1067 435h-3q-8 0 -31 -6q0 20 11 20q5 -1 9 -3l10 11v7q-1 9 4 24v-53zM1040 459h-10v23h10v-23zM1056 400q-17 0 -24 7q10 10 17 15q0 -15 7 -22zM1016 421l-7 -6l-20 21l6 6zM17 1395l-29 9q13 0 22 9q7 -12 7 -18zM1142 249h-10v22h10v-22zM1166 192l-8 -16l-8 4l8 15z M1160 126l-8 -16l-8 4l8 15zM960 343q-13 -20 -40 -46v29q7 -6 12 -6q6 5 6 12q0 8 -7 18q5 -6 14 -18q8 7 15 11zM-78 1405q-16 -16 -45 -16q-6 0 -18.5 3.5t-18.5 3.5h-74q26 14 26 28l13 -11q11 10 11 17l19 -17q11 11 11 24q16 -24 25 -36q5 6 5 11q2 -6 18 -11l13 12 q9 -8 15 -8zM1008 481q-3 -4 -7 -12q-8 -9 -20 -45q-39 -10 -115 -37q0 18 -6 24q-3 -6 -3 -18q-8 0 -14 5q-3 -5 -13 -17q0 12 -5 17q-4 0 -9 -3q9 -28 33 -45q9 11 25 30q0 -22 -4 -26q8 -4 15 -4q10 0 20 6q0 -8 -9 -10q-5 -2 -15 -1q-1 -20 -9 -60q2 6 2 13q0 51 -66 59 v-359h-232q5 6 5 13q0 20 -53 45q-27 -23 -32 -31t-5 -40q0 -30 12 -51v-27l-14 11q-12 -11 -12 -24v5q1 17 -6 31q-6 -5 -7 -12q0 24 -11 24q-6 0 -6 -9q0 77 -5 85t-46 8q-3 0 -47 -28q23 24 53 44q-9 17 -30 47q9 7 9 12q0 -9 12 -21q8 7 12 42q4 40 7 48q4 -23 2 -62 l15 -16q8 6 16 6q6 0 11 -3q-13 0 -24 -12q13 -21 12 -21q30 0 32 30q-1 -6 13 -6q7 0 14 8t11 10q24 -24 62 -24v83q27 8 60 53l-3 32q-9 -12 -23 -36q-33 48 -43 48q-2 0 -4 -2q2 -3 3 -8q-2 -2 -5 -2q-6 0 -7 6t-8 6q-29 0 -40 42l12 -12q-4 15 -18 37q-6 -9 -25 -24 l23 44q-4 5 -9 5q-6 0 -13 -7v5q0 8 -6 16l-6 -3q4 9 11 29h27l29 -48l17 72q10 -18 37 -54q9 9 9 21q0 13 -16 18q-2 21 -2 102q-12 32 -12 30q0 9 7 27t7 27q5 2 16 14q0 8 -17 8v65h-248q-4 -66 -4 -112q0 -88 52 -175l-14 11q-4 -5 -27 -16q0 -15 18 -15q-4 -13 -4 -27 q0 -17 10 -43q15 -38 16 -42q-12 24 -44 78v-333h-229v508l-13 13h2q4 0 8 -3v855q-5 6 -69 17q4 23 23 23q5 0 12.5 -3t11.5 -3q25 0 28 44q0 -9 -1 -18q-2 21 -2 69h79q0 10 5 30q15 0 26 -11q14 24 24 24q7 0 13 -6t11 -6q8 0 22.5 5.5t21.5 5.5q-1 -6 -1 -10q0 -3 2 -4 q-20 3 -37 3q-46 0 -71 -26q28 -4 60 -4t68 4v-622h250v615h233q-5 -30 -5 -65q0 -31 4 -65q8 7 14 11q-21 -30 -21 -115q0 -14 1.5 -42t1.5 -42v-569q13 -12 36 -12q-8 -8 -8 -22q-2 5 -7 11l-13 -11v2q1 5 -4 9q-4 -5 -4 -30q0 -18 2 -29q16 -11 54 -37q7 28 7 52 q0 33 -14 59v39q8 2 22 6v-16q-1 -20 4 -20q8 0 15 5l-18 -19l35 -6l35 -52q8 8 13 12q-3 -8 -11 -15q9 -23 28 -75q4 5 32 17zM1148 54l-8 -16l-8 3l8 16zM908 267h-9l-7 21l9 3zM878 231h-10v46h10v-46zM1058 51h-10v16h10v-16zM1067 32q0 -15 -8 -24l-14 17q8 3 22 7z M566 513l-8 -5l-14 18l8 6zM1058 -21h-10v22h10v-22zM572 454h-9l-13 26l9 3zM974 27h-10v34h10v-34zM878 99h-10v40h10v-40zM948 46q-39 -7 -41 -7q3 8 7 23q14 -5 34 -16zM893 49q0 -11 -17 -35q0 12 -5 35h22zM437 339q-4 4 -9 4t-12 -4q-2 16 -26 44q23 32 34 63 q0 -5 -10 -14q6 -5 12 -5q-8 -8 -8 -15q0 -6 5 -11q-3 4 -7 4q-5 -1 -8 -4q8 -21 29 -62zM464 300l-8 -16l-8 4l8 15zM398 348l-8 -16l-8 4l8 15zM410 261h-10v28h10v-28zM450 226q-11 5 -17 5q0 17 10 17q0 -16 7 -22zM458 201h-9l-7 15l9 3zM464 181l-7 -6l-14 15l6 6z M350 255h-10v17h10v-17zM413 186h-28v11h28v-11zM-6 563q-14 -14 -21 -24q0 32 -1 45q8 -4 22 -21zM-7 477q-7 7 -22 7l8 34q4 -11 14 -41zM-46 522l-8 -16l-8 4l7 15zM18 449q-3 -1 -7 -1q-16 0 -26 16q-6 -3 -6 -9q0 10 -15 15q34 -11 54 -21zM905 507q-6 51 -21 65v-20 q0 -28 1 -51q6 6 20 6zM869 444v11h-28v-11h28zM812 363v22h-10v-22h10zM345 417l-7 28h-11l7 -28h11zM572 60l-8 3l-8 -16l8 -3zM257 351v23q-26 -13 -34 -29q12 6 34 6zM422 51l-7 18l-9 -3l7 -15h9zM482 -11h-10l-6 -40h10z" />
<glyph unicode="I" horiz-adv-x="442" d="M681 1389h-48v11h48v-11zM-54 2102h-11v16h11v-16zM-47 2033l-7 -28h-11l7 28h11zM578 1344h-11v16h11v-16zM633 1300l-18 -8v9l14 8zM641 1284l-15 -21l-9 5l15 22zM591 1310l-9 -5l-15 22l9 5zM191 1694l-7 -35h-11l7 35h11zM608 1258l-18 -8v9l14 7zM506 1344 q-11 6 -17 6v22q7 -10 17 -28zM422 1443l-8 -16l-9 4l8 15zM-45 1919q0 -22 -16 -36v22zM560 1265h-11l-7 34h11zM196 1637l-8 -16l-8 4l8 15zM-38 1838h-17v10h17v-10zM504 1275l-8 -28h-10l7 28h11zM420 1400l-33 10q-1 -22 -1 -67q-4 15 -14 48q-6 -3 -6 -9q0 8 6.5 24 t6.5 25q0 -15 12 -15q6 0 6 12q6 -7 22 -7v-56v-132l-1 -33q0 -1 -1 -2v0q-14 18 -35 63q7 9 7 14q3 -6 15 -17l10 11q1 12 -19 21v73q0 9 10 20q14 14 15 17zM371 1293l-7 -6l-15 15l6 6zM559 1092l-8 -16l-9 3l8 16zM378 1261l-8 -16l-9 4l8 16zM559 1053h-10v16h10v-16z M41 1526h-11l-7 28h10zM472 1089h-11v17h11v-17zM503 1011h-11v34h11v-34zM80 1440q-10 1 -29 1l8 17zM419 1053q-14 0 -30 16h3q6 0 11 -5q7 27 7 64q9 -27 9 -75zM24 1444h-16v10h16v-10zM422 1027l-7 -41h-11l7 41h11zM46 1371l-8 -17l-9 4l8 16zM403 938h-9l-8 20l9 3z M403 913h-11v17h11v-17zM742 543q-6 40 -35 51l29 27q6 -21 6 -78zM56 1192q-15 0 -44 6q-7 -21 -7 -53q0 -51 14 -71v-33q-11 -5 -13 -31q-2 -29 -10 -37q0 42 -2 87q0 11 -6.5 34.5t-6.5 36.5q0 8 1 14q-10 4 -25 14q12 4 12 19q0 9 -6 26t-6 25q0 3 3 12t3 14 q0 10 -2.5 30t-2.5 30q0 24 11 37q-5 5 -11 8q2 10 -8 29q17 20 17 47q-14 23 -14 57q0 20 6.5 60.5t5.5 61.5v7q5 -5 12 -13q-10 -184 36 -312q-8 -14 -8 -25q0 -10 5 -17q-7 -19 -7 -29q0 -23 38 -23q-1 0 15 12v-23zM503 786h-9l-8 15l9 3zM422 863l-7 -28h-11l8 28h10z M359 835h-11v107h11v-107zM93 1161q0 -24 -8 -28q-20 -9 -22 -11q11 -11 11 -21l-23 20v21q15 6 42 19zM85 1043q-7 4 -21 4q5 7 13 23q8 -7 8 -27zM426 678q-13 -7 -31 -7q1 15 -7 29q0 3 17 17q6 35 8 56q10 -63 13 -95zM40 1074l-8 -17l-9 4l8 16zM660 368h-11v22h11v-22 zM416 580h-11v65h11v-65zM607 432q-19 5 -43 -10v23q-1 0 36 6q0 -19 7 -19zM359 610h-11v35h11v-35zM351 1370q-13 -47 -13 -163v-1203h-137q1 4 1 7q0 10 -14 10q-7 0 -19.5 -8.5t-19.5 -8.5h-46v280q-4 3 -8 3q-6 0 -12 -4q7 10 12 30q-6 -4 -19 -11q11 14 25 21v167 q-45 28 -60 28q-6 0 -17.5 -4t-16.5 -4q-1 0 -1 1q0 3 13 16q-16 14 -50 38q9 0 23 14q0 -5 -10 -15q4 -2 14 -9q5 18 5 32q0 23 -13 36v31q14 32 14 72q0 18 -3.5 52.5t-3.5 51.5q0 34 8 82q1 -17 29 -56q-7 -19 -7 -53h15q10 9 7 13q5 4 5 54q8 -6 20 -24q4 5 4 11 q10 0 21 -11q10 9 10 21q0 22 -24 28l-2 -2q32 30 32 53q0 7 -6 20t-6 21q-7 7 -14 11q-3 -11 -18 -34q3 -2 5 -2q5 0 12 5q0 -7 1 -21v-21q-3 2 -7 2q12 0 -28 -8q-1 5 -8 16q13 0 25 12q-2 7 -19.5 21t-17.5 20q0 8 12.5 15.5t13.5 11.5q9 0 21 -12q1 1 1 3q0 7 -10 26 q16 0 27 -10q6 5 6 17q0 29 -21 39q0 12 10 12l4 -2q5 23 5 41q0 41 -25 53q9 6 25 18q-10 10 -10 16q0 5 10 5l-13 229q12 6 15 48q3 37 28 38q-6 -1 -6 -12h52q7 9 7 17q0 14 -21 22q14 17 21 52q11 -7 11 -26q0 -7 -2 -21.5t-2 -21.5q0 -27 32 -27h92q3 3 7 3q7 0 14 -12 q-4 -27 -4 -51q0 -51 19 -89zM607 344h-4q-17 0 -27 1l8 34q7 -3 23 -35zM378 593l-15 -21l-8 5l14 22zM63 897q-10 -10 -16 -18q0 -1 -1 29v4zM534 425l-8 -16l-9 4l8 15zM412 513q-11 2 -17 8q9 29 8 40q9 -14 9 -48zM506 433q0 -9 -2 -21q-5 7 -15 17v41q17 -9 17 -37z M563 375q-7 -2 -21 -5q5 0 19 27q0 -14 2 -22zM566 366l-8 -24l-9 4l7 20h10zM359 544h-11v16h11v-16zM529 362h-11l-7 40h11zM604 334q-2 -4 -27 -46v23q21 10 27 23zM617 261q0 9 -7 15q-13 -13 -33 -23q11 10 11 18q0 5 -5 9q17 0 21 -4q12 12 12 42q1 -21 1 -46v-11z M572 265h-9l-8 14l9 4zM428 404h-11v17h11v-17zM570 323q-20 -20 -21 -41h-32q-3 1 -12 9q-6 5 -15 4h-7v23q12 -7 33 -24q4 3 17 3t20 33q11 -7 17 -7zM438 334q-20 -7 -36 -9q0 67 -13 162q8 2 23 6q0 -104 -5 -146q18 -9 31 -13zM601 239q0 -16 -10 -30q-9 29 -9 28 q0 14 18 14l1 -7v-5zM378 463l-7 -34h-10l6 34h11zM560 249q-4 4 -27 4q6 10 6 16zM472 334l-8 -16l-9 4l8 15zM513 242q-15 0 -15 -5q0 30 -1 45q7 -14 16 -40zM385 376q0 -15 -7 -21q-3 10 -8 15q15 0 15 6zM375 335h-23v10h23v-10zM397 295h-11v16h11v-16zM-31 704 q0 1 -1 1q-4 0 -14 -11l-10 8q6 -5 18 -13q0 6 7 15zM413 224q0 -16 -2 64q-5 -13 -26 -33q2 2 4 2q5 0 12 -8q-22 -10 -22 -25q0 10 6 16q5 -2 16 -9q-6 -6 -6 -14q18 0 18 7zM-19 669q-2 -4 -2 -38q0 16 -20 16v26q1 -10 7 -15zM420 175h-25q15 26 15 28q-3 -27 -3 -18 q0 -9 13 -10zM-29 623h-9l-8 14l9 3zM78 416h-11v23h11v-23zM0 492q-11 -4 -16 -10q0 15 -9 15zM-104 201l-8 -17l-9 4l8 16zM-110 134l-8 -16l-9 4l8 15zM282 934q-20 11 -47 33v-20q0 -12 -16 -19q16 -10 14 -27q32 10 49 33zM287 787v27q-30 15 -30 32q0 6 1.5 17t1.5 16 q-7 -4 -21 -4q0 -58 -1 -88h49zM219 970l-28 9q-40 -30 -40 -66q0 -18 37 -46q-31 -10 -31 -27q0 -10 25 -10q-7 6 -7 12q0 5 5 10q8 -3 15 -10v-5q1 -19 -7 -26h24v132q-14 -13 -25 -19l-5 27q13 6 37 19zM71 970l-13 26h-10l15 -29zM100 818v21q-7 -3 -13 -3q-12 0 -22 10 v-55q8 8 26 23q8 7 9 4zM94 775q-9 9 -24 9l9 -29q0 20 15 20zM56 790h-30q5 -14 23 -35q0 -3 7 35zM294 395q-19 19 -37 19v-11v-7q0 -11 2 -29q21 0 35 28zM201 343l-24 8v-9l21 -7zM153 319v29h-11v-29h11zM138 328q-12 5 -36 14q0 -7 6.5 -21t6.5 -21q15 17 23 28z" />
<glyph unicode="J" horiz-adv-x="620" d="M539 1480q0 -18 -16 -52v37q0 15 16 15zM562 798q-1 21 -15 77q5 -3 15 -6v-71zM584 799h-11v16h11v-16zM554 595h-9l-7 14l8 3zM552 1274q0 -16 -29 -37q0 -15 -7 -51q-6 -32 -6 -50t7 -74q6 -47 2 -75q16 -22 16 -36q0 -5 -2 -9q-7 -6 -17 -15q7 -6 16 -24 q8 -104 8 -168q0 -6 -6.5 -17.5t-6.5 -20.5q0 -12 6 -30q5 0 -23 -5q6 5 6 15q0 8 -4 19q-12 -9 -12 -23q0 -9 7.5 -26t7.5 -24q4 6 18 18v-237l-13 -14h-4q-7 0 -11 -4q0 -20 -6.5 -58.5t-6.5 -58.5q0 -31 12 -54q-3 -1 -5 -1q-7 0 -15 8q-18 -82 -73 -147 q-63 -75 -139 -75h-169v209q13 -2 26 -2q141 0 141 132v266q13 0 18 5l1 2q0 -2 -17 25q0 9 1 27.5t1 28.5q0 7 -2 22t-2 22q0 25 18 35q-4 7 -17 14v719h204q7 21 27 66q0 -20 14 -54l-6 -3l10 -27q5 6 14 14q-20 -12 -26 -58q-7 -60 -10 -67q8 -2 21 -6q3 -9 19 -51 q14 -36 14 -45zM531 348v-27q0 -93 -2 -144q-1 -12 -4 -34q0 -2 -2 -3h-1q0 74 -12 102v26q14 12 21 80zM494 127h-10v16h10v-16zM499 97q0 -10 -10 -37v57q4 -9 10 -20zM9 534q-5 39 -33 50l28 27q5 -21 5 -77zM50 253h-9l-7 20l9 3zM524 1332v16h-10v-16h10zM536 1290v16 h-10v-16h10zM536 1254v22h-11v-22h11zM512 1066h-9l-7 -20l8 -3zM512 703v16h-10v-16h10zM530 403l-8 17l-8 -3l7 -14h9z" />
<glyph unicode="K" horiz-adv-x="964" d="M555 1620l-6 -6l-15 15l6 6zM440 1423l-17 -8v9l14 7zM379 1415h-23v11h23v-11zM860 5h-239q-82 296 -82 308q0 15 9 20q-30 42 -63 172q-41 157 -55 191q-46 -81 -99 -204q2 -14 2 -31q0 -50 -12 -129q11 -37 11 -99q0 -26 -5 -114q-5 -71 -2 -114h-227q10 57 10 116 q0 55 -9 112l-13 -11q17 30 17 141v1150h230v-583l264 580h233l-258 -523q72 -252 72 -264q0 -43 -42 -56v-17q0 -12 16 -26q25 12 38 18q19 0 28 -27q11 -37 33 -112q31 -103 75 -246q68 -219 68 -225v-27zM386 795l-15 21q-20 -7 -51 -7v-34h27q13 7 39 20zM289 819 q0 8 -7 23t-7 22q-8 -32 -28 -94q8 -8 22 -16q2 2 2 14q0 23 9 32.5t9 18.5zM724 236l-8 3l-8 -15l8 -4zM188 119l-24 8v-9l20 -7z" />
<glyph unicode="L" horiz-adv-x="746" d="M738 829l-8 -24l-9 4l8 20h9zM388 999h-11v34h11v-34zM357 1043l-8 -16l-9 4l8 15zM542 775l-8 -28h-10l7 28h11zM406 855h-11v22h11v-22zM-132 1362h-17v10h17v-10zM-8 1204q-21 -11 -16 -32v2q1 4 -9 12.5t-12 11.5q7 8 21 22zM-160 1346l-23 -14l-5 8l22 14zM12 1131 h-10v58h10v-58zM498 651h-10v34h10v-34zM692 -21h-41v21h-548v333q0 6 -12 6q9 19 9 17v408q-5 -4 -5 -8v-4v755h240v-310q0 -14 13 -11l-8 -7q-3 -69 -3 -120q0 -85 9 -121q6 7 6 26q0 16 -4 40q3 -30 18 -83q-5 2 -10 2q-20 0 -20 -33q0 -15 3 -18l14 12l28 -116 q53 -40 53 -114v-33q-4 -1 -9 -1q-6 0 -18.5 3t-18.5 3q-12 0 -24 -12l-13 12q-4 -2 -15 -10l5 -27q8 7 25 17q-6 -6 -6 -12t4 -10q9 4 15 4q-15 -21 -22 -84q-3 -46 -7 -92q-14 -16 -14 -29v-171h338v-5q0 -14 18 -21v-207zM769 287l-8 -16l-9 4l8 15zM-31 1071l-22 -21 l-6 7l21 20zM446 583q0 -9 -15 -53q0 9 -4 26.5t-4 26.5h23zM-125 1085q0 -7 -9 -15q-7 3 -15 8q0 22 16 22q8 -7 8 -15zM412 553l-8 -24l-8 4l7 20h9zM62 881l-8 -16l-9 4l8 15zM381 525h-10v22h10v-22zM520 326h-32q-27 0 -33.5 31t-19.5 30q2 21 7 64q20 0 23 4 q-28 25 -43 47q0 9 30 21q0 -23 21 -45q28 -78 47 -152zM-264 1169l-8 -16l-9 4l8 15zM74 833l-11 -22l-9 4l11 21zM-12 905l-8 -16l-9 4l8 15zM86 811l-14 -42l-9 4l14 38h9zM59 799q-5 -7 -15 -23v38q1 -15 15 -15zM77 696h-29v10h29v-10zM-31 803l-8 -16l-8 4l7 15z M-18 775l-7 -28h-11l8 28h10zM-12 711h-9l-8 14l9 3zM74 591h-11v40h11v-40zM-18 633h-11v70h11v-70zM-15 625q0 -26 -17 -53v37q0 16 17 16zM98 444l-7 -6l-15 15l7 6zM68 449l-8 -16l-9 4l8 15zM-98 573h-11v22h11v-22zM-6 411h-11v22h11v-22zM-25 449l-23 -40l-9 4l24 39 zM18 359l-8 -16l-8 4l8 15zM-98 463l-8 -24l-9 4l8 20h9zM-23 320q-12 13 -21 13v22q14 0 21 4v-39zM-18 279h-11v34h11v-34zM-43 171h-11v22h11v-22zM-18 111h-11v40h11v-40zM390 650q0 17 -8 24q-12 -13 -33 -13q3 -8 8 -23q15 15 25 15q5 0 8 -3z" />
<glyph unicode="M" horiz-adv-x="1196" d="M576 1795h-11l-6 34h11zM504 1786l-8 -16l-8 3l7 16zM576 1666l-8 -16l-8 4l7 15zM576 1622h-11v22h11v-22zM498 1568h-10v106h10v-106zM582 1469l-8 -16l-9 4l8 15zM578 1382q0 -25 -14 -66q-8 31 -8 33q0 10 22 33zM582 1293h-9l-7 14l8 4zM1168 659h-11v22h11v-22z M474 1367l-8 -16l-8 4l7 15zM581 1243l-6 -6l-15 14l6 7zM155 1618q0 -18 -13 -44q-22 7 -32 5q-2 11 -2 29q34 -5 31 -5q7 13 7 45v12q0 5 1 9q0 -8 4 -25t4 -26zM116 1644l-4 -22h-10l3 22h11zM80 1604h-11v58h11v-58zM1092 26h-147v28q12 7 41 22q-50 50 -72 50 q13 0 -32 -5v898l-6 4l-208 -998h-105l-55 265l-6 1101q0 13 -3 39q15 -29 15 -62v-246q11 -50 35 -162l69 -325l172 889h302v-1498zM-87 1433q-8 0 -24.5 -4t-25.5 -4q3 22 15 22q15 -7 35 -14zM-34 1185h-10v34h10v-34zM482 1128q0 -1 -4 -844l-159 733v-1015h-216v979 q-6 -21 -17 -54q-4 35 -28 162l-15 -12q10 61 12 208q3 134 19 210q6 -6 17 -18q9 16 5 47q10 3 31 7l20 18q1 -8 4 -24.5t3 -24.5l251 1zM609 -474h-22v11h22v-11zM435 -456l-82 -6v11l82 6v-11zM106 1142q-6 -3 -20 -8q10 0 10 -14q10 0 10 22z" />
<glyph unicode="N" horiz-adv-x="967" d="M235 1671h-29v28q8 9 28 25q1 -16 1 -37v-16zM430 1472q-6 -4 -15 -13v72q15 -15 15 -59zM437 1413q-7 -7 -23 -7v47q9 -4 21 -14q2 -5 2 -21v-5zM273 1596l-9 -35q-17 31 -46 83q6 3 18 7v-4q0 -19 37 -51zM464 1363h-9l-8 15l9 3zM431 1384q-15 -15 -29 -15 q-7 19 -7 18q0 7 8 7q9 0 28 -10zM87 1206q0 7 -27 7q4 23 14 59q10 -5 13 -66zM62 1146h-11v22h11v-22zM92 1011l-7 -6l-15 15l6 6zM863 0h-211l-200 554l-18 -18q-6 9 -24 24q1 -5 1 -11l-1 -18q-19 -14 -43 -49q-33 66 -33 81t15 45q14 -28 14 -55q5 0 17 -11 q15 12 15 27q0 17 -12 44q-13 31 -28 31q-5 0 -5 -9q0 -3 -7 -3q2 0 -16 7v-357q8 12 30 36v-112q-33 -22 -37 -95q-1 -3 1 -111h-218q5 27 5 57t-5 63q-22 -11 -25 -11q17 32 31 39v311q-42 42 -42 55q0 9 11 14q0 14 -15 14q-3 0 -6 -3t-7 -3q-3 2 -18 18q-11 12 -21 12 q-8 0 -21 -6.5t-19 -7.5q1 -11 1 -34q-11 22 -31 42q-18 -13 -77 -33q-50 -17 -78 -45q-3 -4 -14 -35.5t-20 -31.5q-16 0 -24 3q-1 7 -3 34q-21 6 -27 6l-10 -10l12 -11q-14 -17 -37 -52v0v0v1v0v0q0 7 9.5 22t9.5 22q0 33 -31 33q-9 0 -15 -5q-9 1 -9 15q0 12 37 37l-8 44 q-7 27 -21 38v22q18 -27 58 -80q11 -13 11 -25q0 -3 11 -3v0q1 1 4 3q12 7 61 31q-11 32 -11 62q31 -19 28 -55v0h1h2l14 1h54q43 20 107 47v3q1 14 -11 55q66 -81 102 -81q10 0 43 17v335q0 11 -13 24v220q4 -2 7 -2q6 0 6 9v338h153q9 15 8 30q8 -25 8 -31q21 0 61 -2 q19 -43 58 -162q27 -82 37 -82q8 0 14 6v-8q-1 -19 8 -32q-8 -7 -8 -13q0 -2 32 -20q-2 -1 -4 -1q-9 0 -23 14q-3 -3 -3 -12q0 -26 29 -26q-5 -3 -17 -14l187 -528v880h214v-1512zM464 458h-11v29h11v-29zM84 741q0 -10 -27 -30q-10 9 -10 27q0 23 23 45q0 -6 7 -20t7 -22z M419 425l-8 -40l-16 15q12 10 12 29q2 0 2 1q0 3 -11 3q-14 0 -29 -26q-18 -29 -28 -34q6 11 15 29q6 22 16 61h21q9 -4 26 -38zM413 339q-14 -13 -29 -13v9v4q0 20 14 28q15 -15 15 -28zM-9 705q-5 2 -17 9q10 9 17 14v-23zM95 591h-22v16h22v-16zM405 253l-16 15q6 4 16 8 v-23zM-42 664h-10l-7 40h11zM487 48l-4 -9l-20 7v9zM95 416q-9 0 -21 -13q0 32 21 42v-29zM342 151h-9l-7 14l8 3zM-14 498l-16 -16q0 22 8 30q3 -14 8 -14zM412 76q0 -23 -21 -23q-6 6 -8 30zM411 5q-17 24 -28 35l28 -6v-29zM418 -66q-11 -13 -28 -13q0 6 28 42v-29z M-376 662l-8 -28h-10l7 28h11zM-158 308h-10v34h10v-34zM13 147l-8 -16l-9 4l8 15zM-280 359l-7 -6l-14 15l6 7zM-324 351q-15 0 -23 -8q0 17 8 24zM-91 96h-10v29h10v-29zM-171 180l-18 -8v9l14 7zM-316 308h-11v16h11v-16zM-270 169q-7 -2 -23 -6v34q8 2 23 6v-34z M336 887l-7 28h-10l7 -28h10zM348 827l-14 35l-8 -3l13 -32h9zM418 640q-18 61 -22 72q-16 42 -37 65v-20q0 -17 23.5 -67t35.5 -50zM104 965l-7 18l-9 -4l7 -14h9zM433 591v22h-10v-22h10zM345 663q-7 19 -7 66q-16 -17 -16 -30t23 -36zM346 201q-11 20 -24 20q0 -28 8 -35 q6 5 16 15zM-245 447q0 16 -23 16v-23q16 0 23 7z" />
<glyph unicode="O" horiz-adv-x="798" d="M-56 1297h-10l-6 39h10zM-31 1372q0 -115 -6 -181v2q1 13 -33 30q15 15 21 15q4 0 4 -8q1 -1 1 -4q1 7 5 102q-2 6 -13 18zM744 339q0 -138 -102 -237t-241 -99q-160 0 -299 161q-12 33 -30 99q-13 90 -13 221q-14 4 -47 23q3 1 4 1q10 0 23 -14q23 7 23 33q0 10 -1.5 30 t-1.5 29q-6 558 -6 560q0 153 97 261q101 112 251 112q142 0 242.5 -100.5t100.5 -241.5v-838zM-103 1239h-10v15h10v-15zM-79 1234l-14 -21l-8 6l14 20zM32 1034h-10v33h10v-33zM-37 1068q-15 8 -15 12l8 6q6 12 7 38v-56zM-33 1022h-10v28h10v-28zM43 858h-10v16h10v-16z M-33 856l-3 -74h-10l3 74h10zM-33 712h-10v45h10v-45zM-32 698l-7 -33h-10l6 33h11zM55 597l-8 -15l-8 3l8 15zM32 583h-10v39h10v-39zM49 554h-10v22h10v-22zM-38 519h-11v127h11v-127zM34 454l-16 14q10 9 16 14v-28zM-32 488l-7 -51h-10l6 51h11zM25 385l-26 -27l-6 7 l26 26zM-32 349h-11l-6 74h11zM-38 308h-11v33h11v-33zM119 127h-8l-7 14l8 3zM53 145q-17 0 -23 6v21q8 2 22 6q0 -23 1 -33zM-38 197h-11v39h11v-39zM-27 138h-10v22h10v-22zM456 903q-5 0 -15 7q0 -13 -10 -23q-6 5 -12 5q-14 0 -14 -22l27 -7q24 39 24 40zM465 862h-9 l-7 -19l8 -4zM521 1171q0 15 -14.5 53t-25.5 51q-26 33 -80 33q-47 0 -83.5 -38.5t-36.5 -85.5v-845q0 -23 18 -60q19 -42 38 -42h16q-4 0 10 1v21q-16 2 -33 3q-14 5 -14 28q0 3 4 17q15 -14 34 -14q18 0 41 14q17 -17 17 -35q6 6 13 6t20.5 -11.5t20.5 -11.5q8 0 38 31 q-13 22 -32 62q-12 -12 -36 -35q-11 10 -24 35q0 -23 -10 -23q-11 11 -27 11q-6 0 -18.5 -8.5t-19.5 -8.5q-38 0 -38 35q0 8 21 35q18 -3 42 -10q2 -9 10 -25q9 9 26 18v21q-17 16 -23 37q-2 -12 -9 -29q-22 11 -68 11v2q0 19 42 42q-7 7 -7 20q-22 -5 -19 -5q-6 0 -15 9 q19 13 61 44q8 -7 20 -23q0 6 9 21t9 22q0 10 -9 30.5t-9 30.5q-35 0 -42 -5q-14 16 -38 45q2 18 2 47q-15 10 -15 19q0 11 21 38q-6 23 -6 38q0 28 45.5 43t45.5 54q0 14 -8 14q-9 0 -24 -17q-8 14 -21 38q-12 5 -24 16l10 10q7 -6 14 -6q28 26 28 40q-5 -4 -17 -11v2 q0 11 17 28t27 17q11 0 55 -22q0 12 5 17h15q18 -15 17 -29v-2q-14 -4 -42 -32q23 10 21 10q27 0 27 -29l-1 -2q-23 -18 -23 -39q0 -14 9.5 -38.5t9.5 -37.5q0 -25 -23 -65l-12 12v-47q23 23 36 23q11 0 11 -3q-1 -1 -2 -1v-85q-4 -5 -9 -14q5 -3 15 -11q-5 -5 -11 -15h-18 v-42q0 -4 13 -27q6 6 27 6zM371 794v27h-10v-27h10zM462 592q-14 3 -30 19q-4 -8 -14 -23q-8 2 -25 5q0 -15 13 -28q18 6 16 6q7 0 7 -18q14 14 33 39zM521 344l-8 174q-7 -29 -8 -46h-21v-33l21 9q-2 -14 -11 -38q0 -14 6 -42.5t6 -42.5q5 6 15 19zM467 412 q-27 -14 -27 -27q10 -4 26 -13q1 13 1 31v9zM354 484v15h-10v-15h10zM432 354v34q-5 0 -14 7q-8 -8 -8 -15q0 -6 22 -26zM428 252q-9 1 -26 3q-13 2 -13 17q0 7 2 17q-12 -6 -27 -22q23 0 23 -18q0 2 -5 -17h26q13 12 20 20zM377 562l-8 -15l-8 3l8 15zM486 286l-14 -14 q-27 0 -27 21q0 25 29 25q0 -7 12 -32z" />
<glyph unicode="P" horiz-adv-x="872" d="M61 1507q0 -33 -6 -39l-15 16q21 0 21 23zM36 1481h-11v16h11v-16zM36 1420h-11l-6 53h11zM69 1349q0 -8 -3.5 -24.5t-3.5 -25.5q-17 10 -28 45q9 6 9 12q4 -8 11 -15v2v21q0 22 -4 71q4 13 19 26v-112zM28 1377l-3 -8l-20 7v9zM-19 1360h-10v16h10v-16zM6 1358l-7 -28 h-10l7 28h10zM63 1167q-17 0 -17 9l6 7q3 23 2 49q9 -26 9 -65zM818 1069q0 -150 -24 -234q-38 -125 -140 -180q-74 -40 -242 -40q-13 -12 -13 -46q0 -16 3 -37q-7 28 -23 85h-39q-5 -11 -5 -21v-600h-228q1 21 1 67q0 47 -26 49q9 7 8 21l13 -12v1388h392q323 0 323 -440z M66 1100h-11v41h11v-41zM529 574l-17 -8v9l14 7zM500 575h-10v22h10v-22zM482 590l-8 -16l-8 3l8 16zM524 515l-21 -21l-6 7l21 20zM488 506l-7 -6l-20 21l6 7zM530 464l-6 -6l-21 21l6 6zM490 496q0 -23 -13 -36q-3 8 -9 14zM60 835h-10v88h10v-88zM60 750h-10v71h10v-71z M401 357q0 -6 -2 -12v24q-4 13 -21 28q16 7 17 47q1 50 4 58v-133q2 -6 2 -12zM458 366l-8 -16l-8 4l8 16zM30 765l-8 -16l-9 3l8 16zM60 736l-3 -40h-11l4 40h10zM404 286h-10l-7 46h11zM57 676q0 -23 -1 -69t-1 -69q0 7 -15 39v92q11 7 17 7zM36 557h-11v16h11v-16z M404 205l-6 -34h-11l7 34h10zM410 98h-11v23h11v-23zM57 354q0 -5 -1 -9v18q-4 16 -22 32v81q15 8 17 15.5t5 9.5v-138q1 -5 1 -9zM60 286h-11v40h11v-40zM60 165h-11v40h11v-40zM76 113q-13 -14 -23 -21q0 22 7 30q10 -4 16 -9zM60 35l-8 -17l-8 4l7 16zM589 1066 q0 107 -25 156q-35 70 -135 70q-17 0 -36 -2q-6 2 -57 2v-457h65q-11 15 -11 33q0 12 12 56q6 -20 6 -42q0 -23 -6 -48h62q125 0 125 232zM525 1185h-11v22h11v-22zM504 1218q-7 -10 -7 -16q-11 8 -28 23zM482 1124h-10v35h10v-35zM404 1191h-11v40h11v-40zM408 1172l-3 -8 l-20 7v9zM531 1028h-11v16h11v-16zM410 1094h-11v59h11v-59zM491 1025h-16v10h16v-10zM410 1061l-8 -17l-8 4l7 16z" />
<glyph unicode="Q" horiz-adv-x="892" d="M899 903q0 -15 -13 -15v-53q-10 7 -45 6q0 11 23 21q-4 10 -5 40v8q9 1 15 1q19 0 25 -8zM834 851q0 -11 -11 -22q-7 15 -12 28h3q15 0 20 -6zM830 777h-8l-7 14l8 3zM834 964h-25q-10 0 -17 17l-4 -629q0 -40 -20 -112q-3 -13 -13 -40q-2 -7 -7 -16q-1 -1 -1 1 q0 -47 80 -47q4 -4 4 -68q0 -55 -3 -154h-54q-48 0 -105.5 37t-78.5 81h-4q-17 2 -30 -24l-6 11q-3 -2 -42 -8q-29 -5 -28 -21q1 12 -8 12t-9 -9q1 9 -9 9q-21 0 -87 17t-84 17q-6 0 -10 -1q6 -1 11 4q-10 6 -34 5q1 10 -12.5 28t-23.5 18q3 0 -17 -5q0 14 5 19 q-10 13 -32 38q-7 -8 -14 -11q4 7 11 15q-36 90 -44 90q-6 0 -14 -5q8 23 8 36q0 11 -7 32.5t-7 33.5v853q0 131 105 231t237 100q146 0 243 -103t100 -250l4 -179l9 11h27zM510 -8q0 -110 -2 -161q0 -13 -4 -39q0 -2 -2 -3h-1q0 73 -12 100v25q20 47 21 78zM93 245h-10v21 h10v-21zM474 -224h-11v16h11v-16zM479 -252q0 -11 -11 -37v56q4 -9 11 -19zM503 953v15h-10v-15h10zM514 912v16h-10v-16h10zM539 867q-4 6 -12 15l-15 -15h27zM515 877v21h-11v-21h11zM514 832l-8 3l-13 -26l8 -4zM571 931q0 6 -3 17.5t-3 17.5v212q0 50 -35 90.5t-85 40.5 q-118 0 -120 -161l-5 -575q16 -8 15 -22q14 -9 14 -15q0 -8 -4 -12q-4 6 -11 6q-9 0 -9 -19q0 -18 1 -54v-54q24 -6 19 -41q20 -11 17 -30q5 5 19 5q22 0 22 -11q0 -7 -28 -36q-6 7 -14 11q1 -18 1 -45q12 11 19 11q19 0 17 -23q11 8 26 28q-12 0 -12 5q2 4 5 8q5 -6 11 -6 q3 0 11 17q4 -12 13 -35q-2 75 -1 111q0 -27 -12 -58q-5 26 -20 66q5 3 9 3q5 0 5 -8q0 17 1.5 52t1.5 52q16 0 24 8q-5 5 -5 14q0 12 11 32q-8 19 -30 30q9 21 28 50q5 0 8 -5q0 -22 1 -23q5 35 7 102q-11 7 -11 34q0 -12 -2 -27q-7 0 -21 -3t-21 -3q-6 0 -17 14t-15 16 q-20 -12 -18 -12q-5 0 -15 10q0 5 4 8h53q11 26 31 68q-18 6 -18 31q0 16 11 30l24 -6q0 6 -1 19t-1 19q0 -8 -8 -8l-7 3q0 13 15 16q-2 32 -2 55q0 27 3 42h50q2 -5 2 -10q0 -12 -8 -22q18 -31 17 -55q25 0 25 -13l14 26q2 5 7 12v0zM571 398l-8 431q-18 -25 -68 -66 q0 -34 -6 -45q13 -84 10 -103q13 -19 13 -32q0 -18 -17 -26q14 -7 15 -24l8 -163q1 -14 -13 -25q4 -24 4 -37l-1 -7q-4 -2 -14 -6v36v3l-1 -3q-2 -17 -2 -70q4 9 12 24l10 -10q0 -6 1 -18v-19q35 23 45 77q13 65 12 83zM491 338v16h-10v-16h10zM454 220l-3 8l-14 -7v-8z M517 1121q-31 -65 -40 -99q-17 46 -17 85q0 37 21 79q0 -20 14 -53l-6 -3q8 -16 10 -26q12 11 18 17zM518 1097q-4 -40 -16 -51v36q0 15 16 15zM558 999h-21v16h21v-16zM548 972q-5 -3 -15 -11q-9 11 -9 14q0 17 17 17q3 -7 7 -20zM406 958h-21v16h21v-16zM520 695h-10v22 h10v-22zM538 563l-8 -16l-8 4l7 15zM448 657q-13 -26 -13 -44q-10 6 -16 6q1 4 8 14t7 14q0 5 -4 12q-18 -12 -26 -12q-7 0 -19.5 16t-12.5 22q0 8 28 21q1 -5 1 -8q0 -10 -6 -18q18 -8 53 -23zM548 492q-10 -25 -9 -44v-11q0 18 -13 70q9 -4 22 -15zM432 567h-8l-7 13l8 4z M561 432h-10v16h10v-16zM400 584q-15 0 -27 23q-5 0 -14.5 -10.5t-14.5 -12.5q0 12 -13 26q20 17 32 26q3 0 6 -12q5 5 14 16q0 -8 -5 -13q4 -4 17 -4q0 -8 -5 -13q5 -4 10 -4v-22zM455 532l-14 -15l-6 7l14 14zM427 508h-10v22h10v-22zM383 549h-22v22q22 0 22 -22z M369 424q-2 -2 -6 -2q-7 0 -20 12q13 13 22 20q0 -33 3 -32q1 0 1 2z" />
<glyph unicode="R" horiz-adv-x="886" d="M1097 1481q-32 -16 -51 -16q-5 0 -16 6.5t-18 4.5q22 7 41 7q6 0 21 -1.5t23 -0.5zM1002 1490l-22 -15l-5 9l21 14zM832 1520l-4 -9l-27 14l3 9zM790 1532l-5 -9l-22 15l6 8zM412 1535q-18 0 -18 -6v2q1 13 6 13q6 -9 12 -9zM782 -6h-239l-151 627h-96v-627h-104v1117 q0 23 -10 41v-1152h-129v200q-11 11 -18 12l18 20v1286q27 -4 56 -4q33 0 68 5q2 -15 2 -43q2 -5 8 -5q4 94 14 199q0 -120 13 -163q28 2 66 2q74 0 185 -8q5 4 5 9q-1 4 -4 7q15 -16 21 -16q10 0 9 10l13 -16q15 8 22 8q6 0 5 -11q223 -71 223 -425q0 -135 -25 -213 q-31 -96 -120 -183zM-6 223h-10v16h10v-16zM194 1388v70h-11v-70h11zM194 1358v22h-11v-22h11zM529 1064q0 182 -83 214q0 -14 -4 -18q-2 12 -17 30h-22q2 -8 2 -14q0 -10 -5 -16q-12 12 -12 21q0 -24 -18 -24q9 0 9 -4q-2 -5 -6 -9q8 4 15 4q15 0 17 -11q3 -20 4 -22 q-2 -3 -6 -3q-1 0 -5 2t-4 7q-1 -8 -11 -16l-10 10q7 7 10 14l-20 -35q-8 8 -25 17q-6 -30 -23 -84l-9 10q8 13 8 21q0 7 -6 11q0 -6 -6.5 -15.5t-6.5 -15.5v-300h116q118 0 118 226z" />
<glyph unicode="S" horiz-adv-x="826" d="M354 1772h-10v16h10v-16zM360 1706l-7 -27h-10l7 27h10zM362 1595q0 -20 -15 -34v21zM368 1517h-15v10h15v-10zM442 1216h-10l-7 28h10zM596 1070h-8q-10 0 -25 2q16 6 33 17v-19zM479 1134q-10 1 -27 1l8 16q6 -6 19 -17zM550 1061h-16v10h16v-10zM427 1137h-16v10h16 v-10zM605 992l-19 -46l-8 3l19 43h8zM603 924q-9 -2 -28 -6q6 8 20 22q4 -5 8 -16zM447 1066l-7 -15l-8 3l7 15zM612 887l-7 -34h-10l6 34h11zM611 818h-10v28h10v-28zM568 920q-8 -9 -30 -9q-1 -2 -1 -5q0 -10 7 -31q5 1 7 4q0 3 -5 8q8 -7 8 -16t-6 -19q-7 7 -28 55 q-11 1 -27 8q53 12 55 12q13 0 20 -7zM509 899q-13 -37 -13 -29q-13 13 -21 13l13 16h21zM-105 1471q-31 -16 -49 -16q-6 0 -16 6t-17 4q21 7 40 7q55 0 42 -1zM-197 1479l-21 -14l-5 8l21 14zM773 390q0 -259 -195 -353q-3 -8 -16 -27q-1 2 -1 4q0 5 7 11l-3 8 q-11 -5 -22 -17h-5q-26 1 -75 -10l10 -14q-20 15 -66 17l-70 2q-109 9 -198 125q-85 110 -85 223v42l215 35q0 -72 18 -131q26 -85 79 -85q12 0 35.5 -2.5t35.5 -2.5q30 0 44 9q-15 20 -38 20q-12 0 -33 -8q1 5 12 16q-15 13 -47 37q8 0 22 13l-10 -14l14 -9q0 4 5 20 q4 13 4 19v180q0 6 -5 17.5t-5 18.5q0 11 3 34.5t3 35.5q0 18 -3 22q-26 24 -70 65q-69 68 -149 157q-60 67 -88 142q-19 51 -19 161q0 164 92.5 266.5t255.5 102.5q106 0 191.5 -61.5t111.5 -163.5l23 -89q2 -7 4 -10v-33q-49 -4 -142 -20q-4 -1 -13.5 -8t-16.5 -7 q-3 0 -3 9q-2 2 -6 2q-71 0 -88 4q17 4 44 2l9 10v21q-9 9 -28 30q4 13 4 26q0 77 -99 77q-41 0 -41 -41q0 -25 9 -110q10 -89 16 -103l-1 -10q-1 -30 17 -49q-2 -22 -6 -44q-6 0 -6 -3q3 -4 0 -7q0 -25 21 -25q5 0 5 6q1 -1 1 -3q-1 -4 -3 -6l15 -9q5 6 5 18q3 -30 88 -106 q5 5 15 16q-4 -7 -12 -19q18 -11 45 -38h16q6 6 6 24q2 -19 10 -55q157 -171 157 -355zM375 423q-6 -9 -6 -14q-5 5 -17 12l9 -7q8 7 14 9zM386 389q-2 -14 -2 -37q0 16 -19 16v25q1 -4 7 -15zM377 344h-8l-8 14l9 3zM646 43l-6 -5l-15 14l6 6zM529 1219l-8 3l-7 -15l8 -4z M368 1303q-75 -39 -75 -143q0 -73 68 -173zM492 539q-11 7 -27 21v-53q13 25 27 32zM457 544v20q-11 18 -39 54q-8 -12 -8 -26q0 -9 24 -23q-3 -19 -12 -49h23q0 20 12 24zM512 499l-9 3l-7 -15l8 -4zM492 491q-9 9 -22 9l8 -28q0 19 14 19zM456 506h-28q5 -14 22 -34 q0 -3 6 34z" />
<glyph unicode="T" horiz-adv-x="694" d="M510 1231q0 -20 -9 -29q-6 37 -6 36q9 -7 15 -7v0zM507 1137h-10v52h10v-52zM601 1004h-10v34h10v-34zM607 974h-9l-7 14l8 3zM554 1048l-21 -56h-9l22 60zM923 485h-10v16h10v-16zM607 762h-10v59h10v-59zM891 463h-16v11h16v-11zM974 971q-38 26 -191 26 q-57 0 -132.5 -28.5t-116.5 -66.5v-2q-1 -8 6 -9h-4q-7 0 -19 -7q6 -24 29 -64v-27q-15 -6 -13 -37q-8 7 -17 6v-2q0 -8 -3 -15q3 -62 3 -58q0 -24 -9 -32q3 -14 3 -29q0 -22 -8 -46q-1 27 0 70q1 54 1 70q0 94 -13 144q-16 -18 -16 -35q0 -16 13 -31q-8 7 -18 6 q-16 -35 -16 -82q0 -12 29 -56q-11 1 -20 11q-14 -44 -14 -106q0 -64 14 -144q-10 -44 -10 -133v-292h-215v707l-16 16q-6 -7 -12 -12q-8 7 -8 27q0 9 12 27q17 24 18 26q-12 0 -21 11q-7 -8 -6 -19q-7 16 -23 16q8 0 14 6q-3 7 -11 19l13 -5l-1 3q0 13 17 38q-8 6 -18 16 q8 12 19 34l-1 -1q3 -8 13 -17q-2 54 -2 145q0 168 18 242q-6 25 -181 24v23q13 8 41 22q-50 51 -71 51q-4 0 -28 -5v119h687v-209q-20 -6 -126 -6q-51 0 -61 -20q-7 10 -24 25q-10 -7 -27 -23v-413q8 -2 15 -11q31 20 31 81q0 73 -4 165q10 7 21 19q0 -20 -2 -61t-2 -62 v-83q9 1 21 1l-2 1q6 11 83 45q104 45 203 45q64 0 83 -4q33 -6 75 -34zM554 636h-9l-7 20l9 3zM484 684h-10v28h10v-28zM167 1002l-5 -7l-15 15l6 6zM472 636h-10v22h10v-22zM183 928h-22v11h22v-11zM517 528q-8 0 -15 -8v0v0v39zM145 895h-11v28h11v-28zM168 871h-10v22 h10v-22zM472 557h-10v22h10v-22zM174 817h-10v16h10v-16zM525 454h-10v17h10v-17zM151 839l-7 -52h-10l6 52h11zM187 743q-1 14 -15 14l15 16v-30zM508 352h-11v155h11v-155zM489 437l-15 -15l-5 6l14 15zM69 799h-11l-6 52h11zM163 704q-4 8 -11 15q-1 -15 -14 -42v16 q1 13 -7 37q18 0 28 1q1 -9 4 -27zM508 344l-7 -58h-10l6 58h11zM95 736q-18 -25 -48 -77q-5 5 -11 5t-11 -6q7 6 30 44q18 29 40 34zM507 213h-10v58h10v-58zM508 129h-11v76h11v-76zM16 631l-14 -22l-8 6l14 21zM507 26h-10v28h10v-28zM428 1272v10h-21v-10h21zM306 1361 l-14 16q-20 -4 -50 -14v-13v-21v-6h1v0h27q8 23 36 38zM513 1058v16h-10v-16h10zM294 1309h-22v-29l-10 6v0q-10 0 -14.5 -6.5t-4.5 -16.5q6 0 14 -7q8 6 37 53zM229 825v10l-27 7v-10zM229 744q0 15 -7 23q-13 -13 -13 -24q7 1 20 1z" />
<glyph unicode="U" horiz-adv-x="921" d="M503 1668h-11v16h11v-16zM515 1639h-11v15h11v-15zM497 1623l-8 -15l-9 3l8 15zM484 1522h-10v33h10v-33zM484 1486h-10v16h10v-16zM478 1346h-10v74h10v-74zM478 1317h-10v15h10v-15zM493 1065q-8 0 -13 5q-5 -9 -7 -35v58q10 -11 20 -28zM466 1110l-6 -103h-10l6 103 h10zM1046 482l-8 -15l-9 3l8 15zM1007 433l-29 6q-2 8 -7 15q5 0 15 -10l9 15q-2 5 -21 23q3 -2 7 -3q5 0 13 5q0 -5 13 -19v-32zM460 983h-10v16h10v-16zM923 482q-19 -23 -38 -56q-12 12 -19 12q-5 0 -5 -12q-7 9 -7 19q0 5 4 16t4 17q0 10 -7 19q1 -3 4 -6q18 27 18 40 q8 -18 25 -52q4 6 4 11q11 -3 17 -8zM994 374q-11 4 -35 27q22 0 35 1v-28zM846 482q0 -12 -11 -32q3 6 3 12t-3 11q-7 -5 -17 -15q-10 -141 -32 -212q-36 -120 -120 -169q-20 -9 -41 -18q-23 -12 -23 -34v-7q-13 4 -17 4l-29 -16q-1 -5 -1 -8q0 -4 1 -7q-20 -20 -27 -33 q-11 9 -32 29q-62 -47 -63 -47q-4 0 -14 1h-15q0 17 -3.5 52.5t-3.5 52.5q0 60 13 168q9 55 19 160q-5 -1 -5 -6q-5 21 -5 85q0 36 8.5 106.5t8.5 106.5q4 -28 13 -82q3 2 11 20q6 15 12 15t10 -3l1 -3q9 7 8 24q0 8 2 -29q-5 0 -15 -11q-11 -14 -15 -16h-1l2 -2l8 -1 q9 6 32 17q0 -9 -17 -25q5 -5 10 -5q6 0 13 7q-4 -7 -11 -22q-12 0 -21 17q-21 -31 -21 -50q0 -5 4 -9q21 4 24 -13l6 -34q10 8 10 16q0 4 -3 8q24 -47 33 -77l7 -3q-1 -4 -8 -11q6 -6 12 -6q-12 2 -20 -14q-1 6 -13 17l-10 -9q2 -13 10 -38q5 5 7 15v-22q6 -5 31 -5v-45 q-7 4 -15 11q-8 -2 -17 -15q0 9 -12 20q0 -1 -2 -15q-1 -8 -8 -8q-8 0 -12 1l34 -25q6 0 6 -3q-1 -5 0 -8q64 41 64 226v1038l8 -6q19 2 49 2q56 0 174 -3v-1019l12 -10q12 11 14 17q3 -3 3 -8zM847 511l-8 -15l-9 3l8 15zM454 811l-7 -22l-9 3l7 19h9zM1124 85l-7 -6 l-14 15l6 6zM883 240h-9l-7 14l8 3zM551 506l-8 -16l-8 4l7 15zM571 496l-5 -63q-1 7 -9 22q-9 -5 -25 -17v22q28 14 39 36zM923 101h-4h-8q-20 0 -36 5l10 22v-19q17 -8 38 -8zM398 239l-13 -216q-67 7 -147 70q-85 68 -110 148q-19 65 -25 128q-2 31 -17 41q-1 8 -1 17 t1 19q-14 13 -14 15q0 8 15.5 38.5t15.5 35.5v973h231v-1182h45zM856 137h-17v10h17v-10zM862 121q-6 -7 -18 -18l7 6q-5 5 -18 17zM569 380h-10v16h10v-16zM819 127v-11q0 -33 -2 -41q0 7 -4 13.5t-4 7.5q1 3 5 6q-17 17 -17 19q8 2 22 6zM397 363h-47q17 11 39 34z M406 -146h-10v80h10v-80zM400 -275h-11v51h11v-51zM400 -299h-10v16h10v-16zM394 -402l-8 -15l-8 3l7 15zM875 461l-3 8l-14 -7v-8zM454 538v16h-10v-16h10zM501 420l-3 8l-15 -7v-8zM494 368q0 6 -8 17q-7 -6 -7 -26q0 9 15 9zM484 342l-8 3l-8 -15l9 -4zM436 275l-8 17 l-8 -3l7 -14h9zM430 234v22h-10v-22h10z" />
<glyph unicode="V" horiz-adv-x="840" d="M393 1847h-11v17h11v-17zM400 1779l-8 -28h-11l8 28h11zM401 1665q0 -21 -16 -36v22zM409 1585h-17v10h17v-10zM490 1274h-11l-7 28h11zM531 1189q-11 1 -30 1l9 17zM474 1192h-18v11h18v-11zM496 1119l-8 -16l-9 4l8 16zM836 1520l-148 -848q5 25 17 -289q0 -4 4.5 -14 t4.5 -16v-69q-34 -15 -43 -31q0 13 -5 18l-10 -9q5 -5 5 -22q6 3 19 7v-4q1 -6 8 -11l-1 2q-5 1 -12 1q-15 0 -15 -5q2 -6 6 -10q-4 4 -13 15q-8 -7 -8 -12q0 -3 5 -8t5 -10q-10 6 -22 18h-2q-3 0 -8 -4v-35q7 -6 13 -9q0 -11 -12 -22l9 -9q5 4 23 4q-20 -20 -23 -44 q-17 -3 -17 -19q-6 7 -21 17l1 -4q0 -12 -11 -35q12 -12 18 -14q-15 0 -27 11q-4 -20 -12 -54h-256l-305 1514h244l186 -947q19 77 52 280l1 2q0 4 -11 9v27q8 -5 14 -5q3 18 12 51q-19 11 -41 11q-6 -19 -6 -49q0 -53 14 -75v-33q-11 -4 -13 -30q-2 -29 -11 -37q0 36 -2 86 q0 9 -9 42q-8 26 -4 43q-9 4 -25 14q13 4 13 15q0 9 -6.5 28t-6.5 29h7l-14 313q0 2 11.5 29t11.5 41q-1 -25 -1 -49q0 -108 25 -208h-2q-6 0 -6 -12q0 -24 26 -48q-8 -14 -8 -26q0 -9 4 -16q-3 -9 -3 -16q0 -25 35 -36l12 11l97 556h237zM710 218h-11v28h11v-28zM713 167 q0 4 -2 -26q-5 9 -16 19q12 7 18 7zM694 176h-1h-3q-15 0 -25 -20v5q0 14 5 31q8 0 24 -16zM715 126l-4 -8l-17 8l4 8zM716 64l-7 -6l-16 15l7 6zM639 51l-12 -22l-9 4l11 21zM-203 52l-7 -6l-16 15l6 6zM638 248l-7 23l-10 -3l8 -20h9zM587 67v22h-11v-22h11z" />
<glyph unicode="W" horiz-adv-x="1169" d="M646 2136h-16v10h16v-10zM500 1841h-11v22h11v-22zM929 1426l-7 -16l-9 3l8 16zM500 1733h-11v64h11v-64zM500 1656h-11v34h11v-34zM822 1143h-10v34h10v-34zM816 1035h-10v28h10v-28zM835 993q-7 1 -21 1l21 37v-38zM858 970h-11v22h11v-22zM856 950l-23 -7v9l20 7z M858 910h-11v22h11v-22zM1165 1523l-221 -1496h-201l-72 436l-9 10q-12 -4 -36 -14q10 9 10 20q7 -4 14 -12q13 6 13 16q0 5 -2 14t-2 14q-7 3 -26 10v-35l-13 11q-4 -3 -4 -9q0 -8 6 -20q-17 17 -17 23q0 2 10 10q5 39 26 89q-4 4 -17 4q-1 5 -1 11q0 9 2 21q-5 18 -5 27 q1 5 2 7l7 1q0 37 -16 63q-12 -6 -37 -17q0 18 5 37q-7 7 -13 11q-70 -360 -69 -484q-9 10 -9 110q0 47 2 112q-8 2 -21 10q2 -92 -3 -218q-16 -94 -49 -282h-195l-221 1496h219l118 -858l125 781q-2 -77 13 -157q-10 -21 -10 -18v-327l9 -5q3 3 3 297l10 17q1 -7 2 21v12 v74v220q0 15 1.5 45t1.5 45q0 -20 1.5 -59t1.5 -59q18 -2 50 -2q48 0 140 2l94 -553q0 17 25 47v1q-6 -7 -17 -28v-82q13 -13 21 -19q-7 -1 -15 -11q7 -7 11 -10l16 12q6 -3 18 -12q4 4 4 17q2 -6 13 -17l88 650h219zM380 1011h-10v16h10v-16zM614 687l-7 -27h-11l7 27h11z M587 679q0 -7 -7 -20q-11 -5 -16 -5l13 34q10 0 10 -9zM610 623q-14 0 -14 -15q0 9 -13 9l-13 14q0 7 14 21h26v-29zM611 546q-6 6 -20 17q-14 -29 -14 -46q0 -18 15 -24h-28q5 14 5 26q0 18 -11 31h19q6 6 7 37q11 -13 27 -41zM592 457q-9 -31 -11 -49q0 11 -5 26.5 t-5 20.5v21q2 -1 7 0q5 0 6 -8.5t8 -10.5zM559 457h-10v16h10v-16zM601 409h-10v16h10v-16zM637 375l-8 -15l-8 3l7 15zM610 395q0 -9 -3.5 -26.5t-3.5 -26.5q-10 11 -10 30q0 23 17 23zM625 331h-10v16h10v-16zM621 294q-5 -8 -14 -17q1 5 1 8q0 4 -3 5q2 -1 4 -1q4 0 12 5 zM598 241q-19 17 -19 52v5q-16 27 -16 29q0 6 4.5 16.5t4.5 16.5q3 -6 3 -24q0 -12 23 -62v-33zM625 242h-10v16h10v-16zM548 289h-11v16h11v-16zM588 222l-18 -7v9l14 7zM500 248h-11v16h11v-16zM841 751q-4 -7 -12 -15q-1 6 -7 18v-5q-1 -16 16 -28q-11 -12 -11 -33 q0 -6 1 -12q13 25 13 75zM840 659v16h-10v-16h10zM622 731q-4 13 -27 45q0 26 -6 55q0 -30 -6 -36q-5 1 -10 7q2 -5 2 -11q0 -15 -11 -30q5 9 14 29q12 -46 12 -72q6 9 19 30q6 -6 13 -17zM482 819h-10l-7 -64h11zM655 534l-6 52h-10l6 -52h10zM482 747h-10l-7 -52h11z M476 630v51h-10v-51h10zM482 596l-9 3l-7 -15l8 -4zM494 552v16h-10v-16h10zM482 574h-10l-7 -58h11z" />
<glyph unicode="X" horiz-adv-x="937" d="M270 1600l-8 -16l-9 4l8 15zM760 1026h-36q7 6 7 21q18 0 29 -21zM766 888l-29 -7v22l14 13q9 -6 15 -6v-22zM917 685h-9l-8 14l9 3zM779 811q3 0 -30 6q12 10 28 28q1 -22 2 -34zM767 795q-13 0 -37 -7q1 -8 12 -25q-8 0 -24 2t-25 2q-8 0 -27 -17h-28v28q14 14 53 37 q15 -30 20 -30q10 0 28.5 5t27.5 5zM800 643h-11v28h11v-28zM131 1260h-16v11h16v-11zM114 1252q-25 0 -34 5q-1 -1 -1 -2q0 -5 10 -14q-33 0 -49 7q9 0 28 10.5t24 10.5t22 -17zM883 -1h-244l-177 464l-171 -464h-238l283 768q-16 42 -53 138q-5 -5 -5 -18q1 5 1 13 q0 48 -39 112l-10 -20q-4 -4 -22 -4q-2 0 -7 1q-2 11 -2 25q0 13 2.5 39t2.5 39q0 48 -27 87h-22q-7 -7 -7 -18q-2 7 -2 17v12h30q-30 51 -43 49v1q0 8 12 31q-16 15 -22 15q-13 0 -40.5 -8.5t-41.5 -8.5q0 15 1 23q5 -1 14 -9.5t16 -8.5v48q-6 -9 -18 -23q0 9 -14 26.5 t-24 21.5q0 -7 -7 115q0 -3 1 -3l1 1q2 5 6 26q7 31 19 95q37 32 38 49v-40q17 11 17 30q15 -7 22 -10.5t9 -5.5t4 -2q3 1 6 4q-17 16 -17 26q24 -12 38 -12q4 3 4 7q0 5 -6 10q6 -2 17 -5v-64h-4q-15 0 -37 -11v-6l-1 1q1 1 2 1q6 2 27 2q2 -2 2 -4q0 -5 -12 -16 q16 -9 34 -34q5 6 22 6q4 15 4 25q0 3 -3 14l-2 6q7 15 22 45v-6q0 -21 6 -30q6 5 6 10q0 3 -3 6h5q13 0 33.5 -10.5t37.5 -10.5q4 -1 5 -3q-4 -6 -13 -15q-3 -1 -3 1q7 -1 13.5 -2.5t6.5 -12.5q3 -6 14 -6v5q0 9 10 19v-3q1 -14 -11 -46q16 -4 43 -13q-23 3 -21 3 q-11 0 -11 -17q-4 2 -10 3l-2 -2q2 -5 6 -12q0 -61 50 -197q43 -114 84 -192l146 428h239l-271 -727zM264 935h-11v16h11v-16zM237 918q-14 -3 -19 -3q-6 0 -6 6v2q0 3 10 14q5 -9 15 -19zM294 852h-9l-7 20l9 3zM208 911h-10v17h10v-17zM307 786h-11v22h11v-22zM301 742 l-8 -23l-9 3l8 20h9zM264 695l-7 -58h-10l6 58h11zM202 679h-10l-7 40h11zM294 1532l-7 17l-9 -3l7 -14h9zM307 1496v22h-11v-22h11zM261 1547v10h-17v-10h17zM275 1518l-10 7q-3 -3 -25 -3q26 0 35 -4zM88 1405q-18 -8 -33 -8q20 -9 19 -9q14 0 14 15v2zM237 1034h-27v-12 q0 9 27 12z" />
<glyph unicode="Y" horiz-adv-x="826" d="M1184 1738h-65v10h65v-10zM1105 1731l-28 7v11l28 -7v-11zM1067 1731q-17 0 -50 -10.5t-50 -10.5q-11 0 -34 4.5t-35 4.5q12 0 36.5 10.5t32.5 10.5q6 0 17 -3t17 -3q19 5 56 18q0 -21 10 -21zM880 1725v-8q-1 -4 -1 -7q-6 -6 -29 -6h-14q-19 0 -22 3q3 -3 21 -3 q6 0 10 9t11 9q11 0 17 -6q7 3 7 9zM792 1706l-17 -13q8 8 8 32q4 -6 9 -19zM613 1832l-15 -15l-6 7l14 14zM773 1722q-12 -48 -68 -48q-7 0 -9.5 6t-8.5 6q4 0 -69 -11q16 17 39 17q11 0 11 6l13 -12q18 18 33 18q4 0 7.5 -3t7.5 -3t4 9q1 3 5 3q22 0 35 12zM436 1822 q-24 -3 -51 -22q0 6 -13 19q-6 -3 -11 -3q17 9 15 9q3 0 9 -12q3 5 11 17zM351 1818l-7 -29q-4 2 -10 2q-12 0 -32 -8q1 13 20 21q-8 7 -12 14h41zM-41 1870q-3 -4 -13.5 -7.5t-14.5 -7.5q0 7 -6.5 20t-6.5 20h23q-12 -2 -12 -12q9 -3 30 -13zM822 1495q0 1 -102 -327 q-67 -216 -110 -361q-21 -63 -52 -181q-1 -5 -1 -120v-504h-162v25q-13 7 -42 6q-4 101 -8 203q-9 153 -22 186q11 14 11 18v154q-8 -6 -43 -47q1 -11 31 -41q-7 -7 -7 -21q-23 6 -21 6q-25 0 -55 -30q2 23 -29 33q-25 5 -51 10q0 32 12 34q0 18 -25 34q-21 14 -42 17 q7 8 7 27q36 10 39 11q19 8 28 26h22v-13q0 -7 1 -19v-19l14.5 -14.5t2.5 -25.5q7 0 20 -2.5t20 -2.5q39 0 39 27q0 7 -64 59q-4 36 -10 108q-46 21 -46 50q0 11 17 28.5t28 17.5q12 0 18 -6l9 11l-246 688q9 -11 48 -11q-14 0 191 11q58 -138 77 -334l26 -342q1 -3 9 -11 q6 27 6 65q0 50 -10 118q-10 61 -10 55l15 679q1 -35 1 -74q0 -50 -3 -149t-3 -148q0 -208 66 -359q8 5 18 16q2 10 4 27q16 5 45 16q53 181 112 417h227v-21zM454 972h-23q9 -17 7 -34zM366 745v28h-11v-28h11z" />
<glyph unicode="Z" horiz-adv-x="888" d="M225 2137l-7 -28h-10l7 28h10zM455 1799l-7 -34h-10l6 34h11zM227 2023q0 -21 -15 -35v22zM460 1743l-8 -16l-8 4l8 15zM234 1943h-16v10h16v-10zM464 1626q-8 2 -15 19.5t-21 24.5q14 17 20 52q13 -16 12 -47q0 -37 4 -49zM463 1612v-2q0 -20 -10 -20q-1 7 -10 14 q7 3 20 8zM406 1604l-9 -3l-19 33l8 4zM462 1583q0 -27 -7 -42q0 11 -6 18q-8 -4 -15 -4q11 8 28 28zM223 1766q-6 -6 -12 -6t-12 6q4 5 8 16zM310 1632h-11l-6 28h10zM348 1547q-10 1 -28 1l8 17q7 -6 20 -18zM294 1551h-16v10h16v-10zM186 1759q-52 5 -55 5q-30 0 -87 -15 t-87 -15q-7 0 -24 16q7 0 20 -2t19 -2q13 0 36.5 9.5t35.5 9.5q7 17 19 17l5 -2l-4 -8l5 -2q7 0 13 18q-1 -4 -5 -14q2 -4 7 -4q6 0 16.5 6t16.5 6t6 -10v-2l12 12q11 -5 22 -5t21 5q8 -7 8 -23zM485 1292l-7 -34h-10l6 34h11zM484 1222h-10v28h10v-28zM-74 1731l-28 7v11 l28 -8v-10zM424 1236l-8 -16l-8 4l7 15zM360 1269q0 -24 -6 -27q-20 -10 -22 -12q10 -10 10 -21l-22 20v21q14 6 40 19zM370 1176l-9 -4l-13 30h8zM353 1152q-7 3 -21 3q5 7 13 23q8 -7 8 -21v-5zM309 1182l-7 -16l-9 4l8 15zM332 1007q-10 -10 -16 -18q0 -2 -1 33z M784 1302q0 -16 -276 -688q4 -12 9 -32q-3 9 -13 23q-6 -11 -6 -21q0 -6 2 -11v-39q-19 0 -23 -6q-26 -41 -128 -312h434v-213h-680v212q151 387 151 382q0 9 -10 8l16 5q3 19 3 18q0 5 -10 11q7 -1 15 -10q3 6 9 16q-20 22 -36 30q9 0 22 15q0 -6 -10 -15q6 -3 14 -9 q5 17 5 31q0 23 -13 37v31q14 25 14 71q0 17 -3.5 52t-3.5 52q0 34 8 82q1 -18 27 -57q-7 -18 -7 -52h15q7 6 7 12q6 5 6 10l-1 44q9 -6 20 -24q8 8 13 12l14 -15q-4 -3 -9 -3q-9 0 -23 7q-5 -17 -5 -32q0 -12 3 -23q13 4 13 17q0 6 -3 12l21 -5q22 0 22 27q0 6 -1 13 q7 12 7 20q0 19 -25 19q-17 0 -23 -6q16 29 53 87l-9 9l-13 -12q-5 10 -22 24q-2 -11 -16 -33l5 -2l11 5v-42q-5 2 -33 -6q-1 6 -7 16q13 0 24 12q-2 7 -19.5 21t-17.5 20q0 8 12 16t14 11q9 0 20 -12l1 2q0 9 -10 27q16 0 27 -11q11 11 11 24l13 -12q5 4 5 12q0 14 -14 40 l15 15q28 -14 51 -14q-6 -6 -6 -30q8 -2 21 -10q7 3 16 10q-1 6 -13 11q15 8 15 24q0 -10 6 -15q17 28 52 110q-29 4 -59 4q-34 0 -69 -5q0 -10 10 -19q1 7 8 18q1 -2 1 -7q0 -12 -8 -29q-1 1 -13 24q-10 18 -18 18q-23 0 -23 -24q-21 24 -50 24q-27 0 -34 -7t-7 -34 q0 -70 14 -75v-33q-10 -4 -12 -31q-3 -30 -10 -37q0 50 -2 87q0 11 -6.5 35t-6.5 37q0 7 1 12q-9 4 -24 13l12 30q-16 6 -46 6q-10 0 -30 -1t-30 -1v215h92q5 0 7.5 13.5t4.5 15.5q-16 39 -16 78l1 -4q4 10 20 110q3 -45 3 -122q0 -38 -1 -86h538v-218zM241 814 q-7 -9 -7 -15q-5 5 -17 13l9 -7q4 5 14 10zM518 526q0 3 -2 -26q-5 8 -15 18q6 4 17 8zM252 780q-2 -6 -2 -39q0 16 -19 16v26q2 -9 7 -15zM519 485l-4 -9l-15 8l3 9zM243 733h-9l-7 14l8 4zM520 423l-6 -6l-15 15l6 6zM448 410l-11 -23l-8 4l11 22zM466 1128l-8 3l-8 -16 l8 -3zM458 1096q-11 11 -30 37q5 5 5 9l-3 6q-9 -31 -9 -50q0 -15 6 -22q4 -1 8 -7q-19 -10 -19 -22q0 -4 2 -15q1 -10 0 -16q14 26 34 71q-12 0 -25 9h31zM340 1079l-14 26h-9l14 -29zM361 885q-9 9 -23 9l9 -29q2 10 14 20zM325 900h-29q5 -15 22 -35q3 12 7 35z" />
<glyph unicode="[" horiz-adv-x="592" d="M488 1356h-175v-2v-22v-100q-11 -6 -23 -6q-9 0 -18 4q-4 -3 -4 -11q5 -7 17 -23q2 -35 8 -52q-18 0 -23 4q0 28 -27 28q-5 0 -16 -6.5t-11 -10.5q1 -2 4 -5q6 3 17 6q-4 -2 -46 -16q-28 -9 -31 -26q0 -5 3 -8q5 5 21 5q-6 -9 -12 -28q12 1 38 1q0 -15 4 -18q-11 9 -14 9 q-24 0 -23 -25v-3q-7 5 -13 5q-4 -5 -9 -16q0 15 5 19q-14 14 -22 21q4 21 4 31q0 13 -8 16q0 8 15 23q-9 6 -9 18l7 33l13 11v47q-29 30 -41 51q5 2 9 5q-4 3 -25 3v216h385v-178zM315 1166h-9l-14 29l9 3zM258 1130l-9 -15l-9 4l9 14zM281 1074q-5 -1 -16 -7q-3 3 -27 43 q18 -12 43 -36zM232 1068h-9l-8 18l9 3zM275 1017l-25 -6v8l22 6zM310 950l-16 10q9 7 9 12q0 -17 7 -22zM207 1046h-11l-7 25h11zM287 973q-10 -9 -30 -9l-14 14q9 0 12 2q-2 4 -3 8q3 -3 5 -6q-1 -2 -2 -2q1 -4 5 -11q9 4 27 4zM315 916l-15 -19l-9 5l16 19zM275 939 q-7 -6 -32 -6q13 5 16 25q0 -6 16 -19zM280 913l-18 -19q0 -8 14 -15q-6 -5 -16 -10q2 3 2 7q0 13 -19 37h37zM225 921l-16 -13l-6 6l15 13zM236 961q-6 -5 -22 -14l-12 11q-12 -27 -20 -27q-12 0 -15 1l-1 1v0q0 -1 1 -1q4 -9 18 -21q-7 0 -7 -18q-16 0 -21 5q-4 -2 -4 -7 q4 -4 23 -4q11 0 12 11v3q10 2 15 2v-54h-2q-7 0 -25 6h4l8 26h-11l-6 -24l-8 3q-12 -11 -22 -16l8 105q-2 7 -2 12q0 7 6 11q-19 8 -19 13t5 17t2 20q6 0 23 7q14 -13 14 -34q16 -4 39 -14q-23 -7 -22 -7q-8 0 -19 17q-10 -9 -10 -19q0 -8 3 -14q4 4 5 8v-2q-1 -7 3 -17 q25 16 24 16t18 -5q3 2 3 7t-3 9zM226 896l-9 -15l-9 4l9 13zM167 932q-1 0 -1 1v0zM281 847q-12 -22 -13 -36q-3 5 -3 9q0 3 1 5q-19 16 -36 22q9 -2 27 -4q4 4 4 7q0 4 -5 8q5 0 12.5 -5.5t12.5 -5.5zM220 837l-4 -31h-11l3 31h12zM176 855h-6l1 2zM284 732q-6 0 -12 -3 q-3 3 -5 6q4 -3 17 -3zM226 770l-9 -14l-9 3l9 14zM309 672l-9 -14l-8 3l8 14zM179 815q-8 -18 -8 -30v-6q-10 0 -16 5q-4 0 -7 -2q-2 -7 -4 -9q0 7 4 9l1 3q-4 3 -8 7q12 0 17 -3l8 8q-10 9 -15 9v1q0 8 6 12t6 16q0 -14 16 -20zM207 770l-9 -14l-9 3l8 14zM315 627h-11v14 h11v-14zM213 725h-10l-7 18l9 3zM310 389q0 -4 -3 -6q-5 -9 -5 -13q0 -2 1 -3q-12 11 -12 22q0 -8 8 -8h3q3 0 4.5 2t3.5 6zM491 -25h-389v94q10 2 26 9q-9 5 -26 16l10 174l16 7q-10 5 -25 21v51q22 0 27 -4q3 40 17 58q0 8 -25 8q0 5 -6.5 17.5t-6.5 19.5q0 25 25 36 q-8 9 -22 21q3 -2 7 -2t9 3q-14 12 -25 19v64h25l1 1v2v12v56q20 7 22 7.5t2 3.5q0 8 -19 18v57q15 13 10 16q8 -5 19 -14q5 3 5 8t-8 11q12 7 18 7q-1 -9 1 -44l-4 -2l-12 3l-10 -8q5 -2 10 -13t13 -11q6 0 6 8q0 -16 5 -22q-5 3 -10 3l-11 -9q9 -7 16 -10q-9 0 -18 8 q-5 -2 -5 -12q13 -6 22 -6q12 0 20 10q-4 -6 -4 -11q0 -3 7 -3l19 4q-6 -5 -13 -16q7 -3 12 -3q8 0 20.5 8t17.5 8t8 -2q-1 -11 -1 -22q0 -17 18 -31q4 2 4 21q8 -6 23 -6v-211q-22 5 -21 5q-14 0 -52 -33v2q0 4 3 10.5t3 8.5q0 7 -18 7q-3 0 -6 -3t-7 -3l-13 11 q-16 -9 -35 -19l16 -14l19 17q17 -5 18.5 -19t3.5 -29q2 -11 9 -18q6 41 6 38l14 -11q6 12 24 33q1 -3 1 -7q0 -12 -9 -28l10 -8q6 5 6 8l-3 5l6 2q4 0 12.5 -2.5t12.5 -2.5v-199h179v-179zM117 414h-9l-8 19l9 3zM264 1286l-8 16l-9 -3l8 -13h9zM292 1258q0 5 -6 15 q-9 0 -10 -17v-3q15 5 16 5zM220 1304q-6 0 -14 8v-21q4 5 14 13zM275 1246l-3 8l-15 -7v-8zM262 1199q-11 15 -19 17q10 6 10 12q0 3 -6 12.5t-6 13.5q0 6 7 13q1 0 1 1q-2 5 -9 11q-7 -12 -26 -32q1 -1 1 9q-2 2 -7 2q-3 0 -11 -3.5t-10 -2.5v-33q-2 2 -4 2q-6 0 -17 -9 v-46q14 -1 19 -1h12q6 0 13 1q0 8 -12 18q22 3 64 15zM191 1142h-24q0 -5 -6 -15q19 8 30 15zM168 1010l-9 3l-8 -14l9 -3zM168 921l-8 16l-9 -3l8 -13h9zM259 612q-17 18 -21 30q0 -5 -14 -8q16 -14 35 -22zM236 594q-6 13 -24 31q4 -13 8 -40q0 9 16 9zM200 604l-30 18 l-5 -7l28 -18zM235 490v3q0 11 -2 18l-16 -13q6 -5 18 -8zM235 292v9h-23v-9h23zM187 322v14h-11v-14h11zM223 1220h-10v-1l-4 2q-7 1 -10 3l14 -5v17q5 -5 10 -16z" />
<glyph unicode="\" horiz-adv-x="1037" d="M600 902l-7 -13l-7 3l6 13zM89 1324h-9v13h9v-13zM238 1112h-9v19h9v-19zM935 407l-7 -4l-12 18l7 5zM933 -13h-169l-376 908q-18 -6 -36 -38q-20 -37 -31 -45q-5 14 -17 17q37 23 37 43l-1 3q-6 9 -13 14q-5 -4 -5 -14q1 38 -18 35v24q7 7 15 7q23 0 40 -40l-1 -1 q0 -1 1 -1v2q3 3 22 12q-6 26 -46 35q9 12 20 36q-4 4 -9 4q0 15 -13.5 45t-13.5 44q-14 32 -20 53q30 35 46 66q-2 1 -4 1q11 0 -26 -8l-9 31q-10 -23 -15 -37q-8 13 -11 21q-2 -6 -2 -13q0 -5 26 -31q-6 -6 -15 -17q-8 25 -13 38q-8 22 -8 15q2 8 6 23q9 -3 16 -3q5 0 9 2 q-8 12 -24 12l-16 -16l-156 387h163q103 -248 102 -274q1 -2 3 -2q3 0 8 3zM336 963l-13 -13l-5 5l13 13zM359 899q-1 0 -1 1l1 1v-2zM429 789l-6 -14l-8 3l7 13zM305 880l-13 -13l-5 6l13 12zM371 797l-3 -8l-17 7v7zM422 714q-14 0 -18 -3q4 6 11 18q7 -10 7 -15zM340 789 q-17 -9 -17 -34q-6 17 -24 45q23 5 36 5l-11 -11q5 -5 16 -5zM316 737l-12 -24l-7 3l11 24zM264 754l-6 -20l-8 3l7 17h7zM300 692l-11 -30l-8 3l12 27h7zM249 711l-7 -13l-7 3l6 13zM408 514q-1 -1 -3 -1h-10q-10 -1 -46 -1h-22q-12 0 -12 15q9 0 51 -4q9 5 19 15 q0 -6 11.5 -12.5t11.5 -11.5zM233 655l-12 -24l-7 3l12 23zM308 510h-19v9h19v-9zM197 591l-13 -13l-5 6l12 12zM296 525q-9 0 -27 -6.5t-27 -6.5q-22 0 -36 14q7 -1 90 -1zM185 513q-18 1 -41 1q7 4 34 14q1 -5 7 -15zM1 467h-9v19h9v-19zM197 1401v19h-9v-19h9zM345 1250 l-2 7l-18 -6v-7zM311 1251v19h-9v-19h9zM323 1228v9l-29 5v-9zM474 1043q-8 5 -25 11v-1l-1 -1q-6 -2 -31 -8q19 -12 28 -21q13 6 29 20zM345 924h-25q4 -12 15 -30q1 2 2 5q0 6 -7 13q5 3 15 12z" />
<glyph unicode="]" horiz-adv-x="539" d="M437 493q0 -15 -17 -23q6 -4 16 -15v-483h-333v177h147v318q31 7 28 7q22 0 30 -17q2 4 8 14q-8 7 -20 25q-14 0 -14 -11h-29v279q12 -2 18 -2q4 0 7 1q-7 16 -27 19v30q22 29 54 86q-15 -4 -42 -13q-3 14 -12 38q5 -5 24 -5q7 0 7 4q0 3 -2 10q10 0 31 7q0 17 -20 17 t-28 -10l1 8q-1 7 -10 14v316q14 6 46 38q0 4 -4 8q-19 -9 -38 -28q-3 8 -5 27.5t-33 60.5q-3 -3 -3 -8q0 -7 5 -19h-119v180h332v-805q-2 -1 -6 -2q-5 0 -14 3t-14 3q-6 0 -36 -15q5 -4 13 -14q3 -19 3 -26q9 0 9 14q0 -8 6 -13q8 16 16 16q3 0 5.5 -2.5t5.5 -2.5 q5 0 12 21q0 -38 1 -113.5t1 -113.5zM230 1410l-14 14l-5 -6l13 -13zM228 1393v10h-15v-10h15zM425 1047v9l-26 7v-9zM409 1037q-16 7 -19 7q-5 0 -5 -8q-1 -3 -6 -3q-6 0 -23 16q0 -7 -3.5 -20.5t-3.5 -20.5q1 -4 2 -7q5 3 11 10q8 -15 6 -27l8 32q-5 0 -11 3q9 0 44 18z M329 1022q0 7 -4 16q-18 -18 -24 -21h21q7 0 7 5zM367 941l-6 21l-8 -3l6 -18h8zM414 899v10h-15v-10h15zM351 972h-8l-7 -19l8 -3zM307 1002l-6 5l-14 -13l6 -6zM316 982h-19q4 -6 12 -14q5 5 7 14zM382 852l-3 8l-12 -7v-8zM339 760l-5 6l-14 -14l6 -5zM315 751v10h-14 v-10h14zM343 677q-16 31 -18 31q-1 0 -1 -1q0 -15 -18 -29q9 4 18 4t19 -5zM313 713l-8 2l-7 -14l7 -3z" />
<glyph unicode="^" horiz-adv-x="719" d="M458 1849l-3 -3l-7 7l3 3zM615 1547q-51 1 -100 -1q-25 35 -56 83q-6 -27 -27 -80q-5 26 -13 75q-6 0 -8 -6q1 5 2 16q30 0 41 1q-2 13 -12 13h-20q-2 0 -6 -1l-6 28q15 0 15 11q0 13 -18 43.5t-30 30.5l3 9q-7 7 -22 24q-8 -15 -30 -47q-9 13 -18 19q-34 0 -43 -7l7 -6 l6 8q6 -2 16 -8q6 2 18 5q6 -12 9 -19q0 -8 -9 -10.5t-13.5 -22t-14.5 -24.5q-9 1 -26 8q-2 -5 -9 -14q-8 3 -18 8q-3 -30 -12 -30q-1 0 -12 25l-9 -33q-10 20 -26 23l120 197h131v12q28 -58 190 -330zM416 1646q-2 1 0 1v-1zM251 1665q-6 -2 -10 -6v2q0 8 3 14q5 -5 7 -10z M234 1592l-27 -42q-5 -3 -33 -3q-34 0 -37 11q-2 -5 -2 -11h-32l67 109q0 -6 3 -11q4 3 8 5q0 8 -4 -22q6 0 8 3q-1 2 -4 5q10 -7 12 -22q1 -10 23 -10zM283 1727v8h-6v-8h6zM291 1719l-12 3v-4l10 -3zM226 1734l-4 1l-4 -7l4 -1zM157 1600l-4 2l-4 -7l5 -2z" />
<glyph unicode="_" horiz-adv-x="1002" d="M934 -140q0 -16 -16 -16h-18zM706 -209q-8 0 -21 -12q0 22 7 35q14 -14 14 -23zM738 -259l-7 -16l-8 4l7 15zM1052 -291h-273q-15 32 -15 62q0 -17 5 63q-11 3 -33 3q-28 0 -31 -23q-16 18 -34 18q-1 -24 -20 -65q-19 34 -28 53l-18 -71q-5 27 -36 47h-16q-4 -5 -6 -10 q0 -4 8 -4q-1 -1 -3 -1q-3 1 -6 4l-9 -10q5 -9 16 -26l11 12q4 -5 14 -15q-22 -6 -22 -19q0 -6 3 -13q15 0 15 18q15 -15 15 -23v0h-6l-21 -1l-112 -1q-71 -1 -113 13q-5 -5 -5 -11h-379v174l243 1q10 -20 11 -20q5 -8 20 -10q-2 -26 3 -34l15 16q-12 18 -12 22q0 -2 7 25 q10 0 30 1t30 1q50 0 66 -10v3l3 -6q-1 2 -3 3v-14q0 -43 17 -82q5 0 8 3q-9 14 -9 35q0 -8 18 -29q-4 -30 17 -50q12 14 12 26q0 8 -9 21t-9 21v2q5 -6 12 -18q12 12 19 12q6 -6 11 -13q2 2 2 10q0 10 -13 23q-17 18 -19 21q-11 -17 -18 -29q-9 12 -25 39q7 0 7 19 q19 -10 25 -23q3 5 3 12q0 10 -6 22q52 0 64 1q6 -4 14 -12q4 6 4 11h321q0 -19 3 -22q14 14 19 14h2l-12 -12q12 -22 29 -68q4 -5 12 -5q14 0 33 18q6 -4 17 -12l3 6q0 5 -6 10q6 0 18.5 -5t19.5 -5q99 0 99 43q0 17 -20 38h23v-174zM958 -253v10h-16v-10h16zM932 -248 q-6 0 -47 21q-4 -4 -14 -10q11 0 31 -5.5t30 -5.5zM492 -202l-6 6l-14 -15l5 -6zM493 -222h-10l-7 -27h10zM311 -150v27h-10v-27h10zM323 -140h-10l-3 -22h10z" />
<glyph unicode="`" horiz-adv-x="517" d="M413 1428h-106l-204 264l215 10z" />
<glyph unicode="a" d="M139 1606q1 -55 -16 -161t-17 -159q0 -31 3 -59q-5 36 -16 109q-2 7 -4 15l-1 -4q1 6 21 106q11 53 30 159v-6zM893 407q0 -16 -7 -23q-6 0 -21 29q7 -6 28 -6zM778 294q-28 29 -28 39q0 5 15 21q2 -4 13 -60zM833 0h-233q-28 179 -56 325q-120 11 -212 11q-29 0 -36 -26 q-2 -7 -3 -49q0 -15 -3 -25q-8 -56 -24 -162q-4 -27 -22 -36l11 -4v-34h-227l84 506q-16 7 -89 51q-38 23 -114 54q-61 22 -181 70q-7 3 -30 25q-18 17 -36 17l-10 13q1 3 1 4q0 8 -11 7q22 10 55 10q18 0 76.5 -48t79.5 -48q88 0 184 -90q20 0 45 16l-18 18h38l13 1 q5 0 5 1l10 10l1 4q0 13 -75 40l-4 -16l-2 2q4 -6 7 -15q-9 1 -13.5 -4.5t-4.5 -14.5h-22q-3 4 -31 32q-24 24 -24 31t6 13v34q-4 4 -13 4q-20 0 -18 -28h-36q10 1 24 7q-16 27 -42 43q7 -1 16 -1q22 0 57 8l-24 24q31 -16 44 -29q-1 11 -1 36q35 -18 50 -18q6 0 12 6t12 6 q8 -4 29 -12q2 2 2 4l-9 19q25 7 23 7q7 0 16 -18q5 3 9 11q11 0 28 -23q31 110 31 163q0 6 -23 50q-25 48 -29 60q-10 33 -13 85q1 30 -5 87q3 -5 22 -112q16 -89 50 -134l95 541h293q2 -11 183 -1043q9 -11 16 -11q-6 -14 -6 -46h-4q-15 2 -43 -17q6 -20 25 -39l-3 7v-16 q0 -46 18 -87l8 4q-9 14 -9 36q1 -8 19 -30q-1 -5 -1 -10q0 -23 21 -43q14 -70 41 -214zM-202 777l-65 25l28 9q13 -11 37 -34zM-184 719h-16v10h16v-10zM-376 783l-14 -14q-20 9 -45 42q40 -24 41 -24q7 0 7 3q-1 3 -4 6q5 -5 15 -13zM-455 797l-34 6v11l34 -7v-10z M514 1489v10h-22v-10h22zM497 640l-75 484l-69 -442q-1 -11 15 -29q20 -23 21 -25q-6 -6 -24 -6q25 -12 24 -23q-15 -5 -36 -15q10 0 30.5 2.5t30.5 2.5q0 -8 -7 -14l24 -15q0 -6 -12 -18h29v5q0 18 19 48q15 22 30 45zM727 423q-7 4 -44 35q-33 28 -39 28q-10 0 -32.5 -6.5 t-34.5 -5.5h-4q3 -10 4 -17q7 2 12 2q10 0 16 -7q-4 -14 -4 -29v-9q0 -6 1 -18q13 27 19 42q28 -6 28 -36q0 -3 -1 -5q20 7 15 7q2 0 3 -1q-15 11 -19 20l10 9q5 -4 15 -10q3 4 9 10q4 -6 6 -12q-5 33 -5 30l14 -16q0 -6 -2.5 -18.5t-2.5 -18.5q8 2 22 6q0 10 -2 29 q5 -3 16 -9zM710 373v22h-11v-22h11zM674 361l-7 34h-10l6 -34h11zM680 331v28h-11v-28h11zM589 415v34h-10v-34h10zM692 341h-10l-4 -22h10zM560 479h-11l-6 -34h10zM361 626v28h-11v-28h11zM800 138v16h-10v-16h10zM406 544v11l-52 -6v-11zM611 314q-10 15 -10 36 q0 8 1 16q0 -6 -12 -18l-24 24q3 -24 5 -36q28 8 28 -16q0 -8 -4 -20zM436 440q0 12 -15 28v-12q0 -10 1 -21q5 3 14 5zM147 756h-28v-22h21q7 6 7 22zM403 405l-9 3l-7 -15l8 -4zM4 703l-23 8v-9l20 -7zM27 681q-5 5 -14 10q-15 0 -15 -23q10 5 29 13zM78 24v16h-11v-16h11 zM659 439h-22q-12 19 -25 19l14 16q21 -10 33 -35zM461 629q-2 -10 -8 -16q-14 0 -28 28q10 0 36 -12z" />
<glyph unicode="b" horiz-adv-x="876" d="M957 752h-9l-7 14l8 4zM975 734h-9l-7 14l8 4zM963 728h-10v16h10v-16zM939 722h-10l-7 28h10zM975 656h-9l-7 14l8 4zM860 764h-10v16h10v-16zM880 733q-2 3 -9 6q-4 -3 -4 -9q0 35 -2 39q8 -8 15 -12v-24zM945 632h-9l-7 21l8 3zM872 699l-16 -15l-5 6l14 15zM879 658 q-5 -5 -5 -21q-2 6 -7 12q-7 -8 -21 -16q4 4 6 10l-9 6h11v15q1 -4 7 -15q6 2 18 9zM822 404q0 -157 -67 -269q-81 -133 -228 -133h-424v287q9 -1 18 -1q45 0 65 23q-23 81 -28 93q-21 53 -54 80q-2 7 -2 47q-48 13 -70 42q-12 17 -33 75q12 1 27 -26q23 -40 29 -46 q23 -14 45 -29v958h312q386 0 386 -379q0 -233 -152 -342q51 -51 64 -51q-2 0 20 11q0 -10 -11 -20q103 -85 103 -320zM35 952q-8 -9 -8 -15q-21 21 -21 29h22q3 -7 7 -14zM34 909q-3 -13 -15 -36q-69 -18 -69 -86q0 -15 6 -29h-4q-11 0 -37 -12q0 27 -19 56q58 69 57 69 q4 0 6.5 -3t5.5 -3q6 0 18 24l12 -12q12 19 39 32zM-15 685q0 -6 -1 -12q-11 10 -34 32l8 34q27 -15 27 -54zM-75 662l-41 7q11 17 28 46q0 -12 13 -53zM-29 584h-11v28h11v-28zM110 393h-11v28h11v-28zM568 1102q0 66 -22 118q-29 70 -85 70h-128v-143q8 6 27 39 q13 21 41 21q26 0 76 -51q-3 -4 -29 -21q-18 -12 -19 -29h6q15 -1 20 5q4 -10 4 -21q0 -12 -5 -25q29 -17 29 -35q0 -11 -4 -15h-5q-24 1 -39 -8q0 -41 -10 -82q-8 2 -21 10q13 45 8 64q8 11 21 11v22q-7 -2 -13 -2q-22 0 -35 26q-27 0 -53 -13v-21q20 5 18 5q10 0 18 -12 q-8 -6 -35 -20v-39q15 17 34 17q17 0 37 -15q-2 -11 -10 -33q-38 6 -61 17v-58h82q12 35 31 35h2q13 -12 23 -18q46 0 75 80q22 63 22 121zM354 1116q-13 -12 -21 -12v-41q21 29 21 53zM485 626v16h-11v-16h11zM448 618l-15 15l-6 -7l14 -14zM509 440v17h-10v-17h10z M592 433q0 14 -4 42t-4 42q-12 -12 -22 -12q-13 0 -13 13q4 0 6.5 -3.5t9.5 -3.5q14 0 14 34q0 15 -40 74q0 -13 -5 -18q-5 6 -3 10q0 13 -18 27.5t-32 14.5h-4q10 -10 15 -19q0 6 6 9q9 -8 9 -24q0 -6 -5 -6q-27 0 -18 1q4 4 7 4q4 -1 5 -5l-6 -6q6 -18 6 -22q0 -8 -7 -18 q12 0 12 -16q0 -3 -16 -34q-5 6 -6 12q4 -21 14 -54q0 12 5 12q18 0 18 -45q0 9 7 16q20 -5 20 -11q0 -1 -4 -8t-4 -10q0 -9 19 -19q5 7 15 18q1 -7 0 -19q-1 -14 -1 -19q9 -10 13 -17q3 0 -19 5q6 -6 6 -10t-3 -6q-17 18 -17 30q5 -6 5 -12q-2 10 -5 29q-11 -5 -26 -35 q-13 11 -32 29q4 -6 4 -17q0 -8 -2 -18l-2 4v1q3 1 8 1q22 0 22 -19l-27 -6q-12 13 -12 24q-7 -5 -19 -17q-6 5 -7 11q0 -24 10 -31q-15 0 -15 11q0 -18 -22 -18q26 -4 26 -28q-5 6 -5 13q0 -13 -5 -18q-5 4 -5 17q-7 -9 -19 -23q-6 13 -6 23q0 6 2 11q-6 0 -12 5 q14 13 27 36q0 -6 -6 -9q-12 15 -30 47q2 -6 2 -13t-2 -16l-1 1q-4 0 -11 -7q-2 4 -9 15q7 7 10 14q-6 -3 -18 -12q7 16 7 19q-1 1 -2 0q-5 2 -15 10v28l10 58q11 -12 11 -22q0 15 12 27q6 -5 7 -12q0 13 5 18q6 -5 7 -12q0 22 8 26q0 36 -1 59l2 2q-1 9 2 21q5 -5 15 -10 q-15 15 -15 25q0 -5 -5 -9q1 7 6 18.5t5 14.5q0 -5 -6 -9q-1 12 -5 36h-82v-461h111q77 0 117 76q32 61 32 145zM570 548h-11v16h11v-16zM527 572h-9l-7 14l9 4zM570 518h-9l-8 15l9 3zM509 279h-9l-7 14l8 3zM430 281l-7 -16l-9 4l8 15zM448 237h-8l-8 14l9 3z" />
<glyph unicode="c" horiz-adv-x="853" d="M495 1702h-8l-7 14l8 4zM774 470q0 -472 -345 -472q-158 0 -257 113q-94 108 -94 268q0 5 8 485q3 -4 7 -29q3 -21 23 -35q12 15 12 26q0 8 -9.5 21.5t-9.5 20.5v2q5 -6 13 -17q11 11 19 11l11 -12l2 1v9q1 7 -13 22q-17 19 -19 22q-2 -11 -11 -30q-21 0 -25 20 q-1 1 -1 38q17 -8 25 -23q0 54 15 68q-18 22 -41 15v201q0 18 12 74.5t19 67.5q14 17 39 51q-7 10 -23 60q16 6 41 18q-5 10 -11 29q15 4 31 25q24 -18 65 -53q39 19 45 61q29 13 29 47q0 10 -2 29.5t-2 29.5q0 12 8.5 38t6.5 40q26 0 63 12q0 -10 -11 -42q19 -17 34 -17 q-1 -25 33 -46q6 3 15 11q1 4 -10 16.5t-13 17.5q8 8 20 8q6 0 38 -32q-14 -32 -20 -32q-16 0 -21 -4v-22q8 -2 20 -6l19 -33q22 3 65 11q-5 -34 -34 -34q-8 0 -14 6l-15 -15l4 -7q259 -76 259 -361v-137h-69q-5 34 -80 63q-1 1 -2 1q-4 -1 -7 -4q8 -14 27 -38q3 0 19 5v-27 h-21q0 12 1 17q-5 -2 -15 -13q-5 -5 -31 -5q-39 0 -47 77q-13 127 -18 144q-25 77 -105 77q-127 0 -127 -224v-255q1 19 -13 27.5t-34 7.5l-7 -10q3 -4 9 -4q-1 -1 -2 -1q-4 0 -7 3l-9 -9q6 -5 15 -26q4 4 11 12q5 -5 15 -16q-22 -6 -22 -19q0 -6 3 -13q10 0 10 13l-2 4 q34 -26 34 -59v-173q-3 6 -14 17l-22 -23q-12 -3 -36 -18q-18 2 -47 88q-5 -17 -5 -34q0 -18 6 -36q-7 3 -25 17l-9 -9q23 -23 29 -46q-5 -2 -17 -13q0 -8 20 -8q7 0 8.5 6t6.5 6q6 0 27 -25v-5q0 -25 17 -76q8 7 14 11q0 -28 -2 -40q3 8 11 23l12 -11q5 3 4 14l-1 11l-9 10 q-5 -1 -5 -6q3 32 5 65q7 38 30 52q2 -4 2 -81q0 -241 126 -241q58 0 91 41q30 38 30 97v193h220q7 -23 7 -70zM197 526h-9l-7 14l9 3zM255 466l-13 -41l-8 3l13 38h8zM446 1568v20q-6 12 -14 34q-12 8 -36 21l-8 -15q0 -7 10 -26.5t10 -28.5q2 0 4 1q5 0 16.5 -3t17.5 -3z M446 1554q-14 -4 -40 -14q31 -2 27 -2zM399 1562q-10 20 -33 45l-6 -57q30 15 39 12zM387 1509q0 16 -25 29q-13 -6 -26 -34q27 5 51 5zM598 1063h-28q3 -8 8 -23q5 9 11 10l6 -3q3 6 3 16zM213 1436q-8 4 -70 13v-28q7 0 18 -11t14 -13q16 16 38 39zM191 860l-6 6l-15 -14 l6 -6zM192 840h-10l-7 -27h10zM127 725v16h-10v-16h10zM191 626v15h-10v-15h10z" />
<glyph unicode="d" horiz-adv-x="858" d="M335 1661q-3 -15 -47 -39q21 -38 21 -50v5q1 3 -0.5 10t-1.5 10h-36v32q0 59 1 63q7 -3 24 -19.5t22 -16.5q4 0 17 5zM98 1281l-8 -16l-8 4l7 15zM804 375q1 -119 -62 -223q-70 -114 -180 -136q-14 -3 -44 -9l-17 -4q-10 -2 -7 -3h-391v901q-3 2 -5 2q-3 0 -6 -3 q0 11 10 21q-42 33 -42 120q0 16 11 57q13 49 15 60l12 -12q4 13 4 72q0 101 -17 139q-4 -1 -10 5q-13 -23 -13 -47q0 -26 15 -54h-39l-11 11q-11 -25 -36 -42q-12 6 -36 30q-17 -15 -25 -61q-5 -36 -10 -71q-19 15 -19 41q0 5 15 64q-16 27 -16 24q0 15 2 45t2 45 q0 12 -6 36t-6 36q0 2 7 57h21l17 -18l18 36q6 -11 6 -25q0 -19 -9 -43q5 -4 15 -4q22 0 27 15q0 2 2 33q12 -6 43 -6q26 0 61 66v-24h388q125 0 219 -108q90 -104 91 -231zM-88 1063h-10l-6 46h10zM-30 298l-14 -16h-33q7 11 19 24zM-10 1401l-9 3l-7 -15l8 -4zM576 476 v152q-23 12 -21 43v13h5q14 -34 13 -42l1 386q0 9 0 7q-4 74 -12 138q-2 21 -26 55q-43 61 -121 61q-12 0 -25 -1q11 -14 28 -34q0 12 8 12q10 0 18 -9q-13 -6 -39 -21q-11 0 -24 54q-5 -15 -23 -36q-10 19 -26 36v-144q2 12 16 12q5 -3 12 -10q-11 -33 -29 -46v-75 q12 0 23 -9q-6 -3 -23 -18v-790h91q154 0 154 266zM104 1069v70h-10v-70h10zM101 1008v35q-5 0 -17 -7q0 -13 17 -28zM380 1215l-8 -16l-8 4l8 15zM428 1161l-8 -16l-8 4l8 15zM564 943l-19 -10l-4 26q23 0 23 -16zM440 1033h-10v22h10v-22zM470 829h-10v40h10v-40zM548 739 h-10v34h10v-34zM554 709h-10v22h10v-22zM389 743l-6 -28q-15 0 -23 7l7 27q8 -2 22 -6zM374 571h-10v16h10v-16zM426 417q-25 -25 -45 -25q15 14 36 40q2 -5 9 -15zM344 433h-10v16h10v-16zM359 370h-16v10h16v-10z" />
<glyph unicode="e" horiz-adv-x="837" d="M469 1235h-11v16h11v-16zM31 1667h-11v22h11v-22zM554 1076l-8 -16l-9 3l8 16zM31 1559h-11v16h11v-16zM462 1037h-10v16h10v-16zM31 1409h-11v70h11v-70zM31 1400l-8 -16l-9 3l8 16zM359 965h-10v34h10v-34zM576 592l-3 -6q-6 -3 -6 -9q-1 11 -1 21v18q10 -16 10 -24z M738 5h-559q-7 -7 -7 -15q0 15 -10 15q-7 0 -7 -12q-19 13 -41 13q1 5 1 10q0 15 -13 21q13 10 12 31l-10 585q-13 -14 -8 -39q-8 -3 -24 -3v11q0 7 2.5 20.5t2.5 19.5q0 7 -17.5 8.5t-17.5 14.5q3 -1 6 -1q8 0 23 8q-6 7 -11 7l-4 -2l11 15q6 2 12 12q4 -9 14 -24 q10 8 10 23q0 11 -6 26q4 0 -13 -12v22q19 14 19 29q0 13 -14 26l-16 -12q-1 26 -26 83q16 0 27 10q-3 -3 -3 -30q0 -20 17 -45h15q11 15 11 51q0 5 -3.5 15.5t-3.5 15.5l2 5q-3 27 -10 27t-15 -4q24 45 24 130q0 37 -5 82q10 8 10 33q0 8 -2 25t-2 25q0 27 2.5 80.5 t2.5 80.5q0 68 -11 123h630v-214h-387v-399l9 -10h75q17 0 27 12l8 -8q26 -4 111 -4q54 0 64 30q0 -5 -8 -18t-8 -20v-201h-50q-6 -10 -6 -48q-10 18 -10 43q-17 4 -34 4q-20 0 -41 -5q-9 -8 -9 -13q0 -3 10 -11q-4 4 -10 4q-10 0 -10 -5v2q1 6 -8.5 15.5t-11.5 13.5 q-6 -9 -18 -24q0 18 -6 24q-11 0 -11 -22q0 10 -8 10q-5 0 -14 -4q13 -12 13 -21t-25 -21q9 -5 24 -17q-4 -11 -18 -23t-14 -24q0 -5 1 -11q-1 9 -8 30q-2 -8 -16 -22v-337h394q-3 -28 -3 -80q0 -53 3 -130zM6 1073h-10v22h10v-22zM469 539h-11v70h11v-70zM444 575h-10v34 h10v-34zM69 935q-5 3 -15 6q0 7 15 35v-41zM97 903l-6 -6l-15 15l6 6zM447 524l-34 6v11l34 -7v-10zM98 891l-7 -46h-10l6 46h11zM395 545h-9l-7 21l9 3zM402 536l-8 -16l-9 4l8 15zM462 445l-6 -8l-28 24l7 8zM392 500h-22v11h22v-11zM88 1144q0 -24 -8 -24q-6 0 -11 6 q0 -1 -1 -1q-1 -3 -1 -5q0 -5 2 -12q-9 0 -30 6q-14 -27 -14 -51q0 -26 16 -48l-7 -7q0 -96 -3 -251q-4 -207 -5 -251q3 -7 9 -19l-9 -176q3 4 3 7q0 5 -9 5q-7 0 -15 -6q2 29 2 55q0 25 -2 47q-5 -2 -10 -10q0 6 9 24q-4 2 -14 10q-7 -21 -20 -54q-8 31 -8 32q0 5 34 51 q0 -11 -10 -21q6 -1 15 -9q10 -1 10 12v169q-8 -3 -24 -6l5 31l-10 10q-8 -5 -14 -5v76q19 19 24 19q6 0 8 -3l2 -9q13 9 13 39q0 6 -4 46q-5 0 -12 1q18 38 18 134q0 30 -5 41q4 14 4 23t-4 14q9 16 12 164l2 180q6 -81 6 -150q0 -55 -4 -103q-1 -1 -1 -2q0 -3 11 -3 q14 0 50 24zM61 791h-10v34h10v-34zM-91 833h-10v16h10v-16zM94 569q-10 1 -28 1l7 28q7 -6 21 -6v-23zM-91 659h-10v76h10v-76zM-87 651q-8 -11 -8 -16l-16 16h24zM-12 536l-8 -16l-8 4l7 15zM92 413h-11v17h11v-17zM92 275h-11v17h11v-17zM-85 413h-10v46h10v-46zM98 182 l-8 -16l-9 4l8 15zM-85 311h-10v17h10v-17zM33 129q0 -26 -7 -64q0 17 -5 64q-5 40 -5 64v40q0 58 2 71l12 -7l1 -24q0 -31 -5 -103q7 -15 7 -41zM-79 270h-9l-7 14l8 3zM-85 144h-10v22h10v-22zM25 365v23h-11v-23h11z" />
<glyph unicode="f" horiz-adv-x="813" d="M677 1978h-11v16h11v-16zM671 1936h-11v16h11v-16zM664 1906h-11v22h11v-22zM658 1892l-7 -40h-11l7 40h11zM756 1630h-12v262h12v-262zM690 1729l-8 -16l-9 3l8 16zM653 1743q0 -12 -12 -35q-8 6 -26 6q-5 -5 -5 -12q0 -12 19 -29h-4q-6 0 -12 4q-15 -9 -33 -71 q29 159 61 197q-9 -24 -25 -74l11 -10q12 9 26 24zM423 1207l-8 -16l-9 4l8 15zM1009 498h-11v22h11v-22zM1009 352l-8 -24l-9 4l8 20h9zM957 366h-11v16h11v-16zM990 252h-11v22h11v-22zM759 1288q-298 0 -305 -5h-104v-401h298v-211h-299v-671h-246v1497h243q17 0 71 8 q49 7 66 5l57 -7l16 52q13 34 27 44q-23 -53 -32 -92l12 -10q82 0 196 6v-215zM957 264h-11v22h11v-22zM1009 114h-11v16h11v-16zM1009 0h-9l-8 15l9 3zM302 1408v27q-2 -9 -11 -9q-7 0 -8 6t-8 6q-15 0 -15 -7v-29q3 1 5 2q-2 0 19 -7q0 13 4 17q6 -6 14 -6zM307 1274 q0 39 -4 109q-12 0 -29 1l-19 -18q-12 7 -29 20q26 14 26 40q0 16 -15 29h-87q-1 0 -2 -1q-7 -5 -7 -19q0 -8 16.5 -30.5t16.5 -29.5q0 -5 -31 -54q-2 -15 -2 -39q0 -67 52 -87q-20 -11 -32 -11q19 -25 62 -82l24 39q-11 45 -11 61q0 29 19 44q18 -16 30 -24q11 0 19 8 q3 11 3 44zM239 1044l-16 16q-10 -9 -16 -17h4h5q10 0 23 1zM261 1301h-12v52h12v-52z" />
<glyph unicode="g" horiz-adv-x="895" d="M190 1736l-3 -22h-10l3 22h10zM153 1630q-20 -40 -20 -52q0 8 -1.5 23t-1.5 22v7h23zM146 1660q-15 -11 -46 -37q15 -7 17 -38q-13 0 -13 -7q2 5 2 10q0 7 -5.5 19.5t-5.5 18.5q0 11 11 20l-8 11l28 -14q7 5 20 17zM202 1523l-8 -15l-8 3l8 15zM164 1521q-19 0 -26 -13 q-1 5 -8 16q19 0 19 19q8 -7 15 -22zM114 1564l-7 -15l-9 3l8 15zM179 1474h-10l-7 39h11zM149 1480h-10v16h10v-16zM136 1491q0 -8 -15.5 -26.5t-17.5 -26.5v5q1 17 -7 100q19 -19 28 -19q-6 -4 -18 -14l5 -20q5 6 17 18q8 -20 8 -17zM38 1480h-10v21h10v-21zM120 1414 l-13 -41l-9 3l13 38h9zM-61 1550h-11v16h11v-16zM-143 1521h-10v21h10v-21zM791 1025h-227q0 10 2.5 31t2.5 31q0 228 -123 228q-84 0 -110 -79q-14 -42 -14 -149v-647q-14 10 -40 29q4 -1 18 -1l-4 19q-3 -3 -7 -3q-5 0 -10 3q-6 -6 -6 -27q0 14 -7 21q1 0 -27 12 q-3 -4 -7 -12l3 -2q-15 28 -41 39q6 6 10 24v-22l9 -4l10 9q-7 7 -11 13q11 6 17 6q-8 -13 -8 -23q0 -13 12 -23q10 0 14 4v39l-44 22q-10 0 -24 -14t-14 -24q0 -38 20 -38q-2 0 20 5l1 3v1v-1v-3v-11v-50q0 -6 4 -13.5t4 -10.5q-8 -4 -7 -15v-6q7 -8 26 -28q13 0 31 20 q-6 7 -15 7q-5 0 -12 -3v2q0 8 12 32q5 -2 18 -29q6 3 6 9q3 -9 8 -26q-7 0 -29 -11v-15q10 -8 23 -29q-58 2 -98 2v53q-7 4 -14 11q-12 -12 -35 -40h-33v164q0 34 5 113q3 38 15 38q4 0 6 -3t6 -3q20 0 20 30q0 14 -23 26l12 12q-7 2 -21 9q-6 -5 -6 -27q-8 25 -8 84 q20 0 31 -5q3 7 3 16q0 11 -5 27q-2 2 -5 2q-4 0 -10 -4l-9 4l-2 -2q7 -10 19 -30q-2 5 -14 16q-6 -5 -6 -14v489q0 -10 16 -15q0 17 5 22q0 8 -23 8q0 38 12 70q-1 -13 -7 -38q5 -5 16 -15l-5 3q-8 -2 -8 -9q0 -3 1 -6q4 3 62 86q48 68 94 88q113 49 174 49 q149 0 250 -99.5t101 -248.5v-153zM9 1339h-10v16h10v-16zM32 1246h-10v39h10v-39zM23 1143h-15v10h15v-10zM-21 1162l-7 -23l-8 3l7 20h8zM15 1029h-10v16h10v-16zM-41 900h-16v10h16v-10zM787 19h-106q-21 52 -29 93q7 -8 20 -23q13 8 38 21l1 12q0 35 -12 64q2 11 8 34 q-3 5 -13 15l-50 -34v-44q6 -2 16 -10q9 5 25 5q0 -22 -11 -22q-20 0 -94.5 -67.5t-125.5 -67.5h-49q-116 0 -184 59q-61 52 -100 169q-3 -14 -19 -40q2 20 16 54q-5 5 -11 5v74q33 -17 33 -51q0 -11 -5 -21q17 -11 27 -34q6 -16 26 -16q4 0 6.5 3t5.5 3q6 0 14 -15.5 t36 -22.5q11 -3 17 -3q24 0 53 26t34 50q71 -35 86 -35q129 0 129 226v146h-134v189h352v-742zM255 467l-8 -16l-8 4l7 14zM-29 682q-8 0 -23 9l-16 -5v22q13 -11 16 -11q8 0 8 12q5 -11 15 -27zM-10 633l-4 -8l-15 7l3 9zM14 611l-15 -15l-5 7l14 14zM41 585 q-5 -11 -15 -27v-3q-1 -7 1.5 -19.5t2.5 -18.5q-5 -3 -16 -6q0 40 -19 40q-10 0 -16 -6q0 16 1 24q0 3 2 6v0q7 -12 39 -12q8 0 12 10t8 12zM-41 587q-17 0 -34 33q11 0 11 4q-1 4 -5 8h22q0 -9 -11 -20q17 -16 17 -25zM294 261q0 -8 -18 -17q6 -5 11 -5q-5 -11 -18 -32h-34 q12 22 21 22q6 0 8 -3l1 -3q7 24 7 70q22 -11 22 -32zM32 490l-7 -16l-9 4l8 15zM252 279q0 4 -2 9l1 -5q0 -5 -5 -35q-14 0 -22 -1q2 2 17 14q11 8 11 18zM-8 519h-32q8 0 27 20q0 -20 5 -20zM-64 570q-7 5 -12 5q-7 -21 -7 -53q-1 5 -2 39v25q8 -5 21 -16zM-40 564 q-10 1 -15 -34l-8 -55q-12 23 -12 62q21 21 21 27q0 5 -3 10q11 -4 17 -10zM61 408l-7 -16l-8 4l7 15zM-155 505h-10v22h10v-22zM-126 437l-7 -15l-9 3l8 15zM120 148h-10v16h10v-16zM111 107q-21 10 -21 33h21v-33zM77 131q-7 3 -14 10q-4 -5 -4 -11q-9 3 -29 8q17 4 39 15 q0 -14 8 -22zM-152 341h-16v22h16v-22zM-202 376h-10v16h10v-16zM120 25h-10v28h10v-28zM21 146l-7 -27h-10l7 27h10zM-173 265h-10v22h10v-22zM-202 277h-10v21h10v-21zM-52 106q-5 1 -19 1q-1 -15 -1 -39q-3 14 -14 55q12 0 34 -17zM-149 145l-8 -16l-8 4l7 15zM-155 19 h-9l-7 14l8 3zM685 441q0 6 -21.5 22.5t-29.5 16.5q7 -46 34 -46q-2 0 17 7zM136 893q-6 6 -21 6q6 0 9 -6q-5 -5 -5 -19q4 6 17 19zM114 862v16h-10v-16h10zM131 842l-14 15l-6 -6l14 -15zM139 733v26q-1 -9 -5 -9h-3q-7 0 -7 5q0 4 2 7l-7 -29h20zM322 164q-5 -2 -11 -2 q-5 0 -11 2q5 -7 14 -17q5 6 8 17z" />
<glyph unicode="h" horiz-adv-x="913" d="M1085 1380h-22v11h22v-11zM962 1476l-8 -16l-8 4l8 15zM1010 1378h-10v22h10v-22zM962 1386l-8 -16l-8 4l8 15zM854 1456h-10l-6 52h10zM886 1544l-7 -227q-14 21 -32 58q7 1 14 11q0 -10 8 -15q8 14 8 34q0 9 -2.5 26.5t-2.5 26.5q0 22 10 37q-7 7 -24 23zM726 1586 q-5 4 -15 13q-10 -10 -10 -17h-22q0 17 -16 17l-12 -6q-3 0 -4 15l-1 3q-5 -6 -5 -11h-17q10 5 27 17q51 0 75 -31zM841 1407l-4 -9l-20 8v9zM842 1360h-10v16h10v-16zM609 1605q0 12 -42 12q-11 0 -33.5 -2.5t-34.5 -2.5q-2 7 -6 22q16 -1 23 -1h15q35 0 42 8 q28 -15 36 -36zM926 1240h-10v16h10v-16zM962 1132h-10v40h10v-40zM888 1260q-7 -27 -7 -81q-13 0 -23 10q18 0 18 17q0 38 -48 47q7 7 16 7q8 0 16 -4q5 6 5 12q16 0 23 -8zM483 1620q-25 -9 -24 -9q-11 0 -17 18q-5 -6 -5 -12q-20 5 -37 5t-32 -5l-14 16q9 0 26 1t26 1 q5 0 8 6t9 6q7 0 29.5 -13.5t30.5 -13.5zM884 1154l-6 -40h-10l6 40h10zM1052 879h-10v17h10v-17zM884 976h-10v22h10v-22zM878 736h-10v64h10v-64zM1100 531h-10v23h10v-23zM1053 593q-3 0 -10 1.5t-10 1.5h-5q3 0 -13 -11q0 6 8 23q4 -4 9 -4q7 0 16 10q0 -21 5 -21z M842 751l-7 -23l-9 3l7 20h9zM878 716l-3 -46h-10l3 46h10zM984 574q-7 4 -14 11q-6 -12 -21 -18q8 23 8 56q0 -22 27 -49zM1056 523q-9 -10 -29 -28q3 10 11 26q-7 8 -11 15q13 -4 29 -13zM1016 544l-15 -15l-6 6l14 15zM830 700h-9l-7 14l9 3zM986 539l-8 -3l-14 29h9z M1067 435h-3q-8 0 -31 -6q0 20 11 20q5 -1 9 -3l10 11v7q-1 9 4 24v-53zM1040 459h-10v23h10v-23zM1056 400q-17 0 -24 7q10 10 17 15q0 -15 7 -22zM1016 421l-7 -6l-20 21l6 6zM17 1395l-29 9q13 0 22 9q7 -12 7 -18zM1142 249h-10v22h10v-22zM1166 192l-8 -16l-8 4l8 15z M1160 126l-8 -16l-8 4l8 15zM960 343q-13 -20 -40 -46v29q7 -6 12 -6q6 5 6 12q0 8 -7 18q5 -6 14 -18q8 7 15 11zM-78 1405q-16 -16 -45 -16q-6 0 -18.5 3.5t-18.5 3.5h-74q26 14 26 28l13 -11q11 10 11 17l19 -17q11 11 11 24q16 -24 25 -36q5 6 5 11q2 -6 18 -11l13 12 q9 -8 15 -8zM1008 481q-3 -4 -7 -12q-8 -9 -20 -45q-39 -10 -115 -37q0 18 -6 24q-3 -6 -3 -18q-8 0 -14 5q-3 -5 -13 -17q0 12 -5 17q-4 0 -9 -3q9 -28 33 -45q9 11 25 30q0 -22 -4 -26q8 -4 15 -4q10 0 20 6q0 -8 -9 -10q-5 -2 -15 -1q-1 -20 -9 -60q2 6 2 13q0 51 -66 59 v-359h-232q5 6 5 13q0 20 -53 45q-27 -23 -32 -31t-5 -40q0 -30 12 -51v-27l-14 11q-12 -11 -12 -24v5q1 17 -6 31q-6 -5 -7 -12q0 24 -11 24q-6 0 -6 -9q0 77 -5 85t-46 8q-3 0 -47 -28q23 24 53 44q-9 17 -30 47q9 7 9 12q0 -9 12 -21q8 7 12 42q4 40 7 48q4 -23 2 -62 l15 -16q8 6 16 6q6 0 11 -3q-13 0 -24 -12q13 -21 12 -21q30 0 32 30q-1 -6 13 -6q7 0 14 8t11 10q24 -24 62 -24v83q27 8 60 53l-3 32q-9 -12 -23 -36q-33 48 -43 48q-2 0 -4 -2q2 -3 3 -8q-2 -2 -5 -2q-6 0 -7 6t-8 6q-29 0 -40 42l12 -12q-4 15 -18 37q-6 -9 -25 -24 l23 44q-4 5 -9 5q-6 0 -13 -7v5q0 8 -6 16l-6 -3q4 9 11 29h27l29 -48l17 72q10 -18 37 -54q9 9 9 21q0 13 -16 18q-2 21 -2 102q-12 32 -12 30q0 9 7 27t7 27q5 2 16 14q0 8 -17 8v65h-248q-4 -66 -4 -112q0 -88 52 -175l-14 11q-4 -5 -27 -16q0 -15 18 -15q-4 -13 -4 -27 q0 -17 10 -43q15 -38 16 -42q-12 24 -44 78v-333h-229v508l-13 13h2q4 0 8 -3v855q-5 6 -69 17q4 23 23 23q5 0 12.5 -3t11.5 -3q25 0 28 44q0 -9 -1 -18q-2 21 -2 69h79q0 10 5 30q15 0 26 -11q14 24 24 24q7 0 13 -6t11 -6q8 0 22.5 5.5t21.5 5.5q-1 -6 -1 -10q0 -3 2 -4 q-20 3 -37 3q-46 0 -71 -26q28 -4 60 -4t68 4v-622h250v615h233q-5 -30 -5 -65q0 -31 4 -65q8 7 14 11q-21 -30 -21 -115q0 -14 1.5 -42t1.5 -42v-569q13 -12 36 -12q-8 -8 -8 -22q-2 5 -7 11l-13 -11v2q1 5 -4 9q-4 -5 -4 -30q0 -18 2 -29q16 -11 54 -37q7 28 7 52 q0 33 -14 59v39q8 2 22 6v-16q-1 -20 4 -20q8 0 15 5l-18 -19l35 -6l35 -52q8 8 13 12q-3 -8 -11 -15q9 -23 28 -75q4 5 32 17zM1148 54l-8 -16l-8 3l8 16zM908 267h-9l-7 21l9 3zM878 231h-10v46h10v-46zM1058 51h-10v16h10v-16zM1067 32q0 -15 -8 -24l-14 17q8 3 22 7z M566 513l-8 -5l-14 18l8 6zM1058 -21h-10v22h10v-22zM572 454h-9l-13 26l9 3zM974 27h-10v34h10v-34zM878 99h-10v40h10v-40zM948 46q-39 -7 -41 -7q3 8 7 23q14 -5 34 -16zM893 49q0 -11 -17 -35q0 12 -5 35h22zM437 339q-4 4 -9 4t-12 -4q-2 16 -26 44q23 32 34 63 q0 -5 -10 -14q6 -5 12 -5q-8 -8 -8 -15q0 -6 5 -11q-3 4 -7 4q-5 -1 -8 -4q8 -21 29 -62zM464 300l-8 -16l-8 4l8 15zM398 348l-8 -16l-8 4l8 15zM410 261h-10v28h10v-28zM450 226q-11 5 -17 5q0 17 10 17q0 -16 7 -22zM458 201h-9l-7 15l9 3zM464 181l-7 -6l-14 15l6 6z M350 255h-10v17h10v-17zM413 186h-28v11h28v-11zM-6 563q-14 -14 -21 -24q0 32 -1 45q8 -4 22 -21zM-7 477q-7 7 -22 7l8 34q4 -11 14 -41zM-46 522l-8 -16l-8 4l7 15zM18 449q-3 -1 -7 -1q-16 0 -26 16q-6 -3 -6 -9q0 10 -15 15q34 -11 54 -21zM905 507q-6 51 -21 65v-20 q0 -28 1 -51q6 6 20 6zM869 444v11h-28v-11h28zM812 363v22h-10v-22h10zM345 417l-7 28h-11l7 -28h11zM572 60l-8 3l-8 -16l8 -3zM257 351v23q-26 -13 -34 -29q12 6 34 6zM422 51l-7 18l-9 -3l7 -15h9zM482 -11h-10l-6 -40h10z" />
<glyph unicode="i" horiz-adv-x="442" d="M681 1389h-48v11h48v-11zM-54 2102h-11v16h11v-16zM-47 2033l-7 -28h-11l7 28h11zM578 1344h-11v16h11v-16zM633 1300l-18 -8v9l14 8zM641 1284l-15 -21l-9 5l15 22zM591 1310l-9 -5l-15 22l9 5zM191 1694l-7 -35h-11l7 35h11zM608 1258l-18 -8v9l14 7zM506 1344 q-11 6 -17 6v22q7 -10 17 -28zM422 1443l-8 -16l-9 4l8 15zM-45 1919q0 -22 -16 -36v22zM560 1265h-11l-7 34h11zM196 1637l-8 -16l-8 4l8 15zM-38 1838h-17v10h17v-10zM504 1275l-8 -28h-10l7 28h11zM420 1400l-33 10q-1 -22 -1 -67q-4 15 -14 48q-6 -3 -6 -9q0 8 6.5 24 t6.5 25q0 -15 12 -15q6 0 6 12q6 -7 22 -7v-56v-132l-1 -33q0 -1 -1 -2v0q-14 18 -35 63q7 9 7 14q3 -6 15 -17l10 11q1 12 -19 21v73q0 9 10 20q14 14 15 17zM371 1293l-7 -6l-15 15l6 6zM559 1092l-8 -16l-9 3l8 16zM378 1261l-8 -16l-9 4l8 16zM559 1053h-10v16h10v-16z M41 1526h-11l-7 28h10zM472 1089h-11v17h11v-17zM503 1011h-11v34h11v-34zM80 1440q-10 1 -29 1l8 17zM419 1053q-14 0 -30 16h3q6 0 11 -5q7 27 7 64q9 -27 9 -75zM24 1444h-16v10h16v-10zM422 1027l-7 -41h-11l7 41h11zM46 1371l-8 -17l-9 4l8 16zM403 938h-9l-8 20l9 3z M403 913h-11v17h11v-17zM742 543q-6 40 -35 51l29 27q6 -21 6 -78zM56 1192q-15 0 -44 6q-7 -21 -7 -53q0 -51 14 -71v-33q-11 -5 -13 -31q-2 -29 -10 -37q0 42 -2 87q0 11 -6.5 34.5t-6.5 36.5q0 8 1 14q-10 4 -25 14q12 4 12 19q0 9 -6 26t-6 25q0 3 3 12t3 14 q0 10 -2.5 30t-2.5 30q0 24 11 37q-5 5 -11 8q2 10 -8 29q17 20 17 47q-14 23 -14 57q0 20 6.5 60.5t5.5 61.5v7q5 -5 12 -13q-10 -184 36 -312q-8 -14 -8 -25q0 -10 5 -17q-7 -19 -7 -29q0 -23 38 -23q-1 0 15 12v-23zM503 786h-9l-8 15l9 3zM422 863l-7 -28h-11l8 28h10z M359 835h-11v107h11v-107zM93 1161q0 -24 -8 -28q-20 -9 -22 -11q11 -11 11 -21l-23 20v21q15 6 42 19zM85 1043q-7 4 -21 4q5 7 13 23q8 -7 8 -27zM426 678q-13 -7 -31 -7q1 15 -7 29q0 3 17 17q6 35 8 56q10 -63 13 -95zM40 1074l-8 -17l-9 4l8 16zM660 368h-11v22h11v-22 zM416 580h-11v65h11v-65zM607 432q-19 5 -43 -10v23q-1 0 36 6q0 -19 7 -19zM359 610h-11v35h11v-35zM351 1370q-13 -47 -13 -163v-1203h-137q1 4 1 7q0 10 -14 10q-7 0 -19.5 -8.5t-19.5 -8.5h-46v280q-4 3 -8 3q-6 0 -12 -4q7 10 12 30q-6 -4 -19 -11q11 14 25 21v167 q-45 28 -60 28q-6 0 -17.5 -4t-16.5 -4q-1 0 -1 1q0 3 13 16q-16 14 -50 38q9 0 23 14q0 -5 -10 -15q4 -2 14 -9q5 18 5 32q0 23 -13 36v31q14 32 14 72q0 18 -3.5 52.5t-3.5 51.5q0 34 8 82q1 -17 29 -56q-7 -19 -7 -53h15q10 9 7 13q5 4 5 54q8 -6 20 -24q4 5 4 11 q10 0 21 -11q10 9 10 21q0 22 -24 28l-2 -2q32 30 32 53q0 7 -6 20t-6 21q-7 7 -14 11q-3 -11 -18 -34q3 -2 5 -2q5 0 12 5q0 -7 1 -21v-21q-3 2 -7 2q12 0 -28 -8q-1 5 -8 16q13 0 25 12q-2 7 -19.5 21t-17.5 20q0 8 12.5 15.5t13.5 11.5q9 0 21 -12q1 1 1 3q0 7 -10 26 q16 0 27 -10q6 5 6 17q0 29 -21 39q0 12 10 12l4 -2q5 23 5 41q0 41 -25 53q9 6 25 18q-10 10 -10 16q0 5 10 5l-13 229q12 6 15 48q3 37 28 38q-6 -1 -6 -12h52q7 9 7 17q0 14 -21 22q14 17 21 52q11 -7 11 -26q0 -7 -2 -21.5t-2 -21.5q0 -27 32 -27h92q3 3 7 3q7 0 14 -12 q-4 -27 -4 -51q0 -51 19 -89zM607 344h-4q-17 0 -27 1l8 34q7 -3 23 -35zM378 593l-15 -21l-8 5l14 22zM63 897q-10 -10 -16 -18q0 -1 -1 29v4zM534 425l-8 -16l-9 4l8 15zM412 513q-11 2 -17 8q9 29 8 40q9 -14 9 -48zM506 433q0 -9 -2 -21q-5 7 -15 17v41q17 -9 17 -37z M563 375q-7 -2 -21 -5q5 0 19 27q0 -14 2 -22zM566 366l-8 -24l-9 4l7 20h10zM359 544h-11v16h11v-16zM529 362h-11l-7 40h11zM604 334q-2 -4 -27 -46v23q21 10 27 23zM617 261q0 9 -7 15q-13 -13 -33 -23q11 10 11 18q0 5 -5 9q17 0 21 -4q12 12 12 42q1 -21 1 -46v-11z M572 265h-9l-8 14l9 4zM428 404h-11v17h11v-17zM570 323q-20 -20 -21 -41h-32q-3 1 -12 9q-6 5 -15 4h-7v23q12 -7 33 -24q4 3 17 3t20 33q11 -7 17 -7zM438 334q-20 -7 -36 -9q0 67 -13 162q8 2 23 6q0 -104 -5 -146q18 -9 31 -13zM601 239q0 -16 -10 -30q-9 29 -9 28 q0 14 18 14l1 -7v-5zM378 463l-7 -34h-10l6 34h11zM560 249q-4 4 -27 4q6 10 6 16zM472 334l-8 -16l-9 4l8 15zM513 242q-15 0 -15 -5q0 30 -1 45q7 -14 16 -40zM385 376q0 -15 -7 -21q-3 10 -8 15q15 0 15 6zM375 335h-23v10h23v-10zM397 295h-11v16h11v-16zM-31 704 q0 1 -1 1q-4 0 -14 -11l-10 8q6 -5 18 -13q0 6 7 15zM413 224q0 -16 -2 64q-5 -13 -26 -33q2 2 4 2q5 0 12 -8q-22 -10 -22 -25q0 10 6 16q5 -2 16 -9q-6 -6 -6 -14q18 0 18 7zM-19 669q-2 -4 -2 -38q0 16 -20 16v26q1 -10 7 -15zM420 175h-25q15 26 15 28q-3 -27 -3 -18 q0 -9 13 -10zM-29 623h-9l-8 14l9 3zM78 416h-11v23h11v-23zM0 492q-11 -4 -16 -10q0 15 -9 15zM-104 201l-8 -17l-9 4l8 16zM-110 134l-8 -16l-9 4l8 15zM282 934q-20 11 -47 33v-20q0 -12 -16 -19q16 -10 14 -27q32 10 49 33zM287 787v27q-30 15 -30 32q0 6 1.5 17t1.5 16 q-7 -4 -21 -4q0 -58 -1 -88h49zM219 970l-28 9q-40 -30 -40 -66q0 -18 37 -46q-31 -10 -31 -27q0 -10 25 -10q-7 6 -7 12q0 5 5 10q8 -3 15 -10v-5q1 -19 -7 -26h24v132q-14 -13 -25 -19l-5 27q13 6 37 19zM71 970l-13 26h-10l15 -29zM100 818v21q-7 -3 -13 -3q-12 0 -22 10 v-55q8 8 26 23q8 7 9 4zM94 775q-9 9 -24 9l9 -29q0 20 15 20zM56 790h-30q5 -14 23 -35q0 -3 7 35zM294 395q-19 19 -37 19v-11v-7q0 -11 2 -29q21 0 35 28zM201 343l-24 8v-9l21 -7zM153 319v29h-11v-29h11zM138 328q-12 5 -36 14q0 -7 6.5 -21t6.5 -21q15 17 23 28z" />
<glyph unicode="j" horiz-adv-x="620" d="M539 1480q0 -18 -16 -52v37q0 15 16 15zM562 798q-1 21 -15 77q5 -3 15 -6v-71zM584 799h-11v16h11v-16zM554 595h-9l-7 14l8 3zM552 1274q0 -16 -29 -37q0 -15 -7 -51q-6 -32 -6 -50t7 -74q6 -47 2 -75q16 -22 16 -36q0 -5 -2 -9q-7 -6 -17 -15q7 -6 16 -24 q8 -104 8 -168q0 -6 -6.5 -17.5t-6.5 -20.5q0 -12 6 -30q5 0 -23 -5q6 5 6 15q0 8 -4 19q-12 -9 -12 -23q0 -9 7.5 -26t7.5 -24q4 6 18 18v-237l-13 -14h-4q-7 0 -11 -4q0 -20 -6.5 -58.5t-6.5 -58.5q0 -31 12 -54q-3 -1 -5 -1q-7 0 -15 8q-18 -82 -73 -147 q-63 -75 -139 -75h-169v209q13 -2 26 -2q141 0 141 132v266q13 0 18 5l1 2q0 -2 -17 25q0 9 1 27.5t1 28.5q0 7 -2 22t-2 22q0 25 18 35q-4 7 -17 14v719h204q7 21 27 66q0 -20 14 -54l-6 -3l10 -27q5 6 14 14q-20 -12 -26 -58q-7 -60 -10 -67q8 -2 21 -6q3 -9 19 -51 q14 -36 14 -45zM531 348v-27q0 -93 -2 -144q-1 -12 -4 -34q0 -2 -2 -3h-1q0 74 -12 102v26q14 12 21 80zM494 127h-10v16h10v-16zM499 97q0 -10 -10 -37v57q4 -9 10 -20zM9 534q-5 39 -33 50l28 27q5 -21 5 -77zM50 253h-9l-7 20l9 3zM524 1332v16h-10v-16h10zM536 1290v16 h-10v-16h10zM536 1254v22h-11v-22h11zM512 1066h-9l-7 -20l8 -3zM512 703v16h-10v-16h10zM530 403l-8 17l-8 -3l7 -14h9z" />
<glyph unicode="k" horiz-adv-x="964" d="M555 1620l-6 -6l-15 15l6 6zM440 1423l-17 -8v9l14 7zM379 1415h-23v11h23v-11zM860 5h-239q-82 296 -82 308q0 15 9 20q-30 42 -63 172q-41 157 -55 191q-46 -81 -99 -204q2 -14 2 -31q0 -50 -12 -129q11 -37 11 -99q0 -26 -5 -114q-5 -71 -2 -114h-227q10 57 10 116 q0 55 -9 112l-13 -11q17 30 17 141v1150h230v-583l264 580h233l-258 -523q72 -252 72 -264q0 -43 -42 -56v-17q0 -12 16 -26q25 12 38 18q19 0 28 -27q11 -37 33 -112q31 -103 75 -246q68 -219 68 -225v-27zM386 795l-15 21q-20 -7 -51 -7v-34h27q13 7 39 20zM289 819 q0 8 -7 23t-7 22q-8 -32 -28 -94q8 -8 22 -16q2 2 2 14q0 23 9 32.5t9 18.5zM724 236l-8 3l-8 -15l8 -4zM188 119l-24 8v-9l20 -7z" />
<glyph unicode="l" horiz-adv-x="746" d="M738 829l-8 -24l-9 4l8 20h9zM388 999h-11v34h11v-34zM357 1043l-8 -16l-9 4l8 15zM542 775l-8 -28h-10l7 28h11zM406 855h-11v22h11v-22zM-132 1362h-17v10h17v-10zM-8 1204q-21 -11 -16 -32v2q1 4 -9 12.5t-12 11.5q7 8 21 22zM-160 1346l-23 -14l-5 8l22 14zM12 1131 h-10v58h10v-58zM498 651h-10v34h10v-34zM692 -21h-41v21h-548v333q0 6 -12 6q9 19 9 17v408q-5 -4 -5 -8v-4v755h240v-310q0 -14 13 -11l-8 -7q-3 -69 -3 -120q0 -85 9 -121q6 7 6 26q0 16 -4 40q3 -30 18 -83q-5 2 -10 2q-20 0 -20 -33q0 -15 3 -18l14 12l28 -116 q53 -40 53 -114v-33q-4 -1 -9 -1q-6 0 -18.5 3t-18.5 3q-12 0 -24 -12l-13 12q-4 -2 -15 -10l5 -27q8 7 25 17q-6 -6 -6 -12t4 -10q9 4 15 4q-15 -21 -22 -84q-3 -46 -7 -92q-14 -16 -14 -29v-171h338v-5q0 -14 18 -21v-207zM769 287l-8 -16l-9 4l8 15zM-31 1071l-22 -21 l-6 7l21 20zM446 583q0 -9 -15 -53q0 9 -4 26.5t-4 26.5h23zM-125 1085q0 -7 -9 -15q-7 3 -15 8q0 22 16 22q8 -7 8 -15zM412 553l-8 -24l-8 4l7 20h9zM62 881l-8 -16l-9 4l8 15zM381 525h-10v22h10v-22zM520 326h-32q-27 0 -33.5 31t-19.5 30q2 21 7 64q20 0 23 4 q-28 25 -43 47q0 9 30 21q0 -23 21 -45q28 -78 47 -152zM-264 1169l-8 -16l-9 4l8 15zM74 833l-11 -22l-9 4l11 21zM-12 905l-8 -16l-9 4l8 15zM86 811l-14 -42l-9 4l14 38h9zM59 799q-5 -7 -15 -23v38q1 -15 15 -15zM77 696h-29v10h29v-10zM-31 803l-8 -16l-8 4l7 15z M-18 775l-7 -28h-11l8 28h10zM-12 711h-9l-8 14l9 3zM74 591h-11v40h11v-40zM-18 633h-11v70h11v-70zM-15 625q0 -26 -17 -53v37q0 16 17 16zM98 444l-7 -6l-15 15l7 6zM68 449l-8 -16l-9 4l8 15zM-98 573h-11v22h11v-22zM-6 411h-11v22h11v-22zM-25 449l-23 -40l-9 4l24 39 zM18 359l-8 -16l-8 4l8 15zM-98 463l-8 -24l-9 4l8 20h9zM-23 320q-12 13 -21 13v22q14 0 21 4v-39zM-18 279h-11v34h11v-34zM-43 171h-11v22h11v-22zM-18 111h-11v40h11v-40zM390 650q0 17 -8 24q-12 -13 -33 -13q3 -8 8 -23q15 15 25 15q5 0 8 -3z" />
<glyph unicode="m" horiz-adv-x="1196" d="M576 1795h-11l-6 34h11zM504 1786l-8 -16l-8 3l7 16zM576 1666l-8 -16l-8 4l7 15zM576 1622h-11v22h11v-22zM498 1568h-10v106h10v-106zM582 1469l-8 -16l-9 4l8 15zM578 1382q0 -25 -14 -66q-8 31 -8 33q0 10 22 33zM582 1293h-9l-7 14l8 4zM1168 659h-11v22h11v-22z M474 1367l-8 -16l-8 4l7 15zM581 1243l-6 -6l-15 14l6 7zM155 1618q0 -18 -13 -44q-22 7 -32 5q-2 11 -2 29q34 -5 31 -5q7 13 7 45v12q0 5 1 9q0 -8 4 -25t4 -26zM116 1644l-4 -22h-10l3 22h11zM80 1604h-11v58h11v-58zM1092 26h-147v28q12 7 41 22q-50 50 -72 50 q13 0 -32 -5v898l-6 4l-208 -998h-105l-55 265l-6 1101q0 13 -3 39q15 -29 15 -62v-246q11 -50 35 -162l69 -325l172 889h302v-1498zM-87 1433q-8 0 -24.5 -4t-25.5 -4q3 22 15 22q15 -7 35 -14zM-34 1185h-10v34h10v-34zM482 1128q0 -1 -4 -844l-159 733v-1015h-216v979 q-6 -21 -17 -54q-4 35 -28 162l-15 -12q10 61 12 208q3 134 19 210q6 -6 17 -18q9 16 5 47q10 3 31 7l20 18q1 -8 4 -24.5t3 -24.5l251 1zM609 -474h-22v11h22v-11zM435 -456l-82 -6v11l82 6v-11zM106 1142q-6 -3 -20 -8q10 0 10 -14q10 0 10 22z" />
<glyph unicode="n" horiz-adv-x="967" d="M235 1671h-29v28q8 9 28 25q1 -16 1 -37v-16zM430 1472q-6 -4 -15 -13v72q15 -15 15 -59zM437 1413q-7 -7 -23 -7v47q9 -4 21 -14q2 -5 2 -21v-5zM273 1596l-9 -35q-17 31 -46 83q6 3 18 7v-4q0 -19 37 -51zM464 1363h-9l-8 15l9 3zM431 1384q-15 -15 -29 -15 q-7 19 -7 18q0 7 8 7q9 0 28 -10zM87 1206q0 7 -27 7q4 23 14 59q10 -5 13 -66zM62 1146h-11v22h11v-22zM92 1011l-7 -6l-15 15l6 6zM863 0h-211l-200 554l-18 -18q-6 9 -24 24q1 -5 1 -11l-1 -18q-19 -14 -43 -49q-33 66 -33 81t15 45q14 -28 14 -55q5 0 17 -11 q15 12 15 27q0 17 -12 44q-13 31 -28 31q-5 0 -5 -9q0 -3 -7 -3q2 0 -16 7v-357q8 12 30 36v-112q-33 -22 -37 -95q-1 -3 1 -111h-218q5 27 5 57t-5 63q-22 -11 -25 -11q17 32 31 39v311q-42 42 -42 55q0 9 11 14q0 14 -15 14q-3 0 -6 -3t-7 -3q-3 2 -18 18q-11 12 -21 12 q-8 0 -21 -6.5t-19 -7.5q1 -11 1 -34q-11 22 -31 42q-18 -13 -77 -33q-50 -17 -78 -45q-3 -4 -14 -35.5t-20 -31.5q-16 0 -24 3q-1 7 -3 34q-21 6 -27 6l-10 -10l12 -11q-14 -17 -37 -52v0v0v1v0v0q0 7 9.5 22t9.5 22q0 33 -31 33q-9 0 -15 -5q-9 1 -9 15q0 12 37 37l-8 44 q-7 27 -21 38v22q18 -27 58 -80q11 -13 11 -25q0 -3 11 -3v0q1 1 4 3q12 7 61 31q-11 32 -11 62q31 -19 28 -55v0h1h2l14 1h54q43 20 107 47v3q1 14 -11 55q66 -81 102 -81q10 0 43 17v335q0 11 -13 24v220q4 -2 7 -2q6 0 6 9v338h153q9 15 8 30q8 -25 8 -31q21 0 61 -2 q19 -43 58 -162q27 -82 37 -82q8 0 14 6v-8q-1 -19 8 -32q-8 -7 -8 -13q0 -2 32 -20q-2 -1 -4 -1q-9 0 -23 14q-3 -3 -3 -12q0 -26 29 -26q-5 -3 -17 -14l187 -528v880h214v-1512zM464 458h-11v29h11v-29zM84 741q0 -10 -27 -30q-10 9 -10 27q0 23 23 45q0 -6 7 -20t7 -22z M419 425l-8 -40l-16 15q12 10 12 29q2 0 2 1q0 3 -11 3q-14 0 -29 -26q-18 -29 -28 -34q6 11 15 29q6 22 16 61h21q9 -4 26 -38zM413 339q-14 -13 -29 -13v9v4q0 20 14 28q15 -15 15 -28zM-9 705q-5 2 -17 9q10 9 17 14v-23zM95 591h-22v16h22v-16zM405 253l-16 15q6 4 16 8 v-23zM-42 664h-10l-7 40h11zM487 48l-4 -9l-20 7v9zM95 416q-9 0 -21 -13q0 32 21 42v-29zM342 151h-9l-7 14l8 3zM-14 498l-16 -16q0 22 8 30q3 -14 8 -14zM412 76q0 -23 -21 -23q-6 6 -8 30zM411 5q-17 24 -28 35l28 -6v-29zM418 -66q-11 -13 -28 -13q0 6 28 42v-29z M-376 662l-8 -28h-10l7 28h11zM-158 308h-10v34h10v-34zM13 147l-8 -16l-9 4l8 15zM-280 359l-7 -6l-14 15l6 7zM-324 351q-15 0 -23 -8q0 17 8 24zM-91 96h-10v29h10v-29zM-171 180l-18 -8v9l14 7zM-316 308h-11v16h11v-16zM-270 169q-7 -2 -23 -6v34q8 2 23 6v-34z M336 887l-7 28h-10l7 -28h10zM348 827l-14 35l-8 -3l13 -32h9zM418 640q-18 61 -22 72q-16 42 -37 65v-20q0 -17 23.5 -67t35.5 -50zM104 965l-7 18l-9 -4l7 -14h9zM433 591v22h-10v-22h10zM345 663q-7 19 -7 66q-16 -17 -16 -30t23 -36zM346 201q-11 20 -24 20q0 -28 8 -35 q6 5 16 15zM-245 447q0 16 -23 16v-23q16 0 23 7z" />
<glyph unicode="o" horiz-adv-x="798" d="M-56 1297h-10l-6 39h10zM-31 1372q0 -115 -6 -181v2q1 13 -33 30q15 15 21 15q4 0 4 -8q1 -1 1 -4q1 7 5 102q-2 6 -13 18zM744 339q0 -138 -102 -237t-241 -99q-160 0 -299 161q-12 33 -30 99q-13 90 -13 221q-14 4 -47 23q3 1 4 1q10 0 23 -14q23 7 23 33q0 10 -1.5 30 t-1.5 29q-6 558 -6 560q0 153 97 261q101 112 251 112q142 0 242.5 -100.5t100.5 -241.5v-838zM-103 1239h-10v15h10v-15zM-79 1234l-14 -21l-8 6l14 20zM32 1034h-10v33h10v-33zM-37 1068q-15 8 -15 12l8 6q6 12 7 38v-56zM-33 1022h-10v28h10v-28zM43 858h-10v16h10v-16z M-33 856l-3 -74h-10l3 74h10zM-33 712h-10v45h10v-45zM-32 698l-7 -33h-10l6 33h11zM55 597l-8 -15l-8 3l8 15zM32 583h-10v39h10v-39zM49 554h-10v22h10v-22zM-38 519h-11v127h11v-127zM34 454l-16 14q10 9 16 14v-28zM-32 488l-7 -51h-10l6 51h11zM25 385l-26 -27l-6 7 l26 26zM-32 349h-11l-6 74h11zM-38 308h-11v33h11v-33zM119 127h-8l-7 14l8 3zM53 145q-17 0 -23 6v21q8 2 22 6q0 -23 1 -33zM-38 197h-11v39h11v-39zM-27 138h-10v22h10v-22zM456 903q-5 0 -15 7q0 -13 -10 -23q-6 5 -12 5q-14 0 -14 -22l27 -7q24 39 24 40zM465 862h-9 l-7 -19l8 -4zM521 1171q0 15 -14.5 53t-25.5 51q-26 33 -80 33q-47 0 -83.5 -38.5t-36.5 -85.5v-845q0 -23 18 -60q19 -42 38 -42h16q-4 0 10 1v21q-16 2 -33 3q-14 5 -14 28q0 3 4 17q15 -14 34 -14q18 0 41 14q17 -17 17 -35q6 6 13 6t20.5 -11.5t20.5 -11.5q8 0 38 31 q-13 22 -32 62q-12 -12 -36 -35q-11 10 -24 35q0 -23 -10 -23q-11 11 -27 11q-6 0 -18.5 -8.5t-19.5 -8.5q-38 0 -38 35q0 8 21 35q18 -3 42 -10q2 -9 10 -25q9 9 26 18v21q-17 16 -23 37q-2 -12 -9 -29q-22 11 -68 11v2q0 19 42 42q-7 7 -7 20q-22 -5 -19 -5q-6 0 -15 9 q19 13 61 44q8 -7 20 -23q0 6 9 21t9 22q0 10 -9 30.5t-9 30.5q-35 0 -42 -5q-14 16 -38 45q2 18 2 47q-15 10 -15 19q0 11 21 38q-6 23 -6 38q0 28 45.5 43t45.5 54q0 14 -8 14q-9 0 -24 -17q-8 14 -21 38q-12 5 -24 16l10 10q7 -6 14 -6q28 26 28 40q-5 -4 -17 -11v2 q0 11 17 28t27 17q11 0 55 -22q0 12 5 17h15q18 -15 17 -29v-2q-14 -4 -42 -32q23 10 21 10q27 0 27 -29l-1 -2q-23 -18 -23 -39q0 -14 9.5 -38.5t9.5 -37.5q0 -25 -23 -65l-12 12v-47q23 23 36 23q11 0 11 -3q-1 -1 -2 -1v-85q-4 -5 -9 -14q5 -3 15 -11q-5 -5 -11 -15h-18 v-42q0 -4 13 -27q6 6 27 6zM371 794v27h-10v-27h10zM462 592q-14 3 -30 19q-4 -8 -14 -23q-8 2 -25 5q0 -15 13 -28q18 6 16 6q7 0 7 -18q14 14 33 39zM521 344l-8 174q-7 -29 -8 -46h-21v-33l21 9q-2 -14 -11 -38q0 -14 6 -42.5t6 -42.5q5 6 15 19zM467 412 q-27 -14 -27 -27q10 -4 26 -13q1 13 1 31v9zM354 484v15h-10v-15h10zM432 354v34q-5 0 -14 7q-8 -8 -8 -15q0 -6 22 -26zM428 252q-9 1 -26 3q-13 2 -13 17q0 7 2 17q-12 -6 -27 -22q23 0 23 -18q0 2 -5 -17h26q13 12 20 20zM377 562l-8 -15l-8 3l8 15zM486 286l-14 -14 q-27 0 -27 21q0 25 29 25q0 -7 12 -32z" />
<glyph unicode="p" horiz-adv-x="872" d="M61 1507q0 -33 -6 -39l-15 16q21 0 21 23zM36 1481h-11v16h11v-16zM36 1420h-11l-6 53h11zM69 1349q0 -8 -3.5 -24.5t-3.5 -25.5q-17 10 -28 45q9 6 9 12q4 -8 11 -15v2v21q0 22 -4 71q4 13 19 26v-112zM28 1377l-3 -8l-20 7v9zM-19 1360h-10v16h10v-16zM6 1358l-7 -28 h-10l7 28h10zM63 1167q-17 0 -17 9l6 7q3 23 2 49q9 -26 9 -65zM818 1069q0 -150 -24 -234q-38 -125 -140 -180q-74 -40 -242 -40q-13 -12 -13 -46q0 -16 3 -37q-7 28 -23 85h-39q-5 -11 -5 -21v-600h-228q1 21 1 67q0 47 -26 49q9 7 8 21l13 -12v1388h392q323 0 323 -440z M66 1100h-11v41h11v-41zM529 574l-17 -8v9l14 7zM500 575h-10v22h10v-22zM482 590l-8 -16l-8 3l8 16zM524 515l-21 -21l-6 7l21 20zM488 506l-7 -6l-20 21l6 7zM530 464l-6 -6l-21 21l6 6zM490 496q0 -23 -13 -36q-3 8 -9 14zM60 835h-10v88h10v-88zM60 750h-10v71h10v-71z M401 357q0 -6 -2 -12v24q-4 13 -21 28q16 7 17 47q1 50 4 58v-133q2 -6 2 -12zM458 366l-8 -16l-8 4l8 16zM30 765l-8 -16l-9 3l8 16zM60 736l-3 -40h-11l4 40h10zM404 286h-10l-7 46h11zM57 676q0 -23 -1 -69t-1 -69q0 7 -15 39v92q11 7 17 7zM36 557h-11v16h11v-16z M404 205l-6 -34h-11l7 34h10zM410 98h-11v23h11v-23zM57 354q0 -5 -1 -9v18q-4 16 -22 32v81q15 8 17 15.5t5 9.5v-138q1 -5 1 -9zM60 286h-11v40h11v-40zM60 165h-11v40h11v-40zM76 113q-13 -14 -23 -21q0 22 7 30q10 -4 16 -9zM60 35l-8 -17l-8 4l7 16zM589 1066 q0 107 -25 156q-35 70 -135 70q-17 0 -36 -2q-6 2 -57 2v-457h65q-11 15 -11 33q0 12 12 56q6 -20 6 -42q0 -23 -6 -48h62q125 0 125 232zM525 1185h-11v22h11v-22zM504 1218q-7 -10 -7 -16q-11 8 -28 23zM482 1124h-10v35h10v-35zM404 1191h-11v40h11v-40zM408 1172l-3 -8 l-20 7v9zM531 1028h-11v16h11v-16zM410 1094h-11v59h11v-59zM491 1025h-16v10h16v-10zM410 1061l-8 -17l-8 4l7 16z" />
<glyph unicode="q" horiz-adv-x="892" d="M899 903q0 -15 -13 -15v-53q-10 7 -45 6q0 11 23 21q-4 10 -5 40v8q9 1 15 1q19 0 25 -8zM834 851q0 -11 -11 -22q-7 15 -12 28h3q15 0 20 -6zM830 777h-8l-7 14l8 3zM834 964h-25q-10 0 -17 17l-4 -629q0 -40 -20 -112q-3 -13 -13 -40q-2 -7 -7 -16q-1 -1 -1 1 q0 -47 80 -47q4 -4 4 -68q0 -55 -3 -154h-54q-48 0 -105.5 37t-78.5 81h-4q-17 2 -30 -24l-6 11q-3 -2 -42 -8q-29 -5 -28 -21q1 12 -8 12t-9 -9q1 9 -9 9q-21 0 -87 17t-84 17q-6 0 -10 -1q6 -1 11 4q-10 6 -34 5q1 10 -12.5 28t-23.5 18q3 0 -17 -5q0 14 5 19 q-10 13 -32 38q-7 -8 -14 -11q4 7 11 15q-36 90 -44 90q-6 0 -14 -5q8 23 8 36q0 11 -7 32.5t-7 33.5v853q0 131 105 231t237 100q146 0 243 -103t100 -250l4 -179l9 11h27zM510 -8q0 -110 -2 -161q0 -13 -4 -39q0 -2 -2 -3h-1q0 73 -12 100v25q20 47 21 78zM93 245h-10v21 h10v-21zM474 -224h-11v16h11v-16zM479 -252q0 -11 -11 -37v56q4 -9 11 -19zM503 953v15h-10v-15h10zM514 912v16h-10v-16h10zM539 867q-4 6 -12 15l-15 -15h27zM515 877v21h-11v-21h11zM514 832l-8 3l-13 -26l8 -4zM571 931q0 6 -3 17.5t-3 17.5v212q0 50 -35 90.5t-85 40.5 q-118 0 -120 -161l-5 -575q16 -8 15 -22q14 -9 14 -15q0 -8 -4 -12q-4 6 -11 6q-9 0 -9 -19q0 -18 1 -54v-54q24 -6 19 -41q20 -11 17 -30q5 5 19 5q22 0 22 -11q0 -7 -28 -36q-6 7 -14 11q1 -18 1 -45q12 11 19 11q19 0 17 -23q11 8 26 28q-12 0 -12 5q2 4 5 8q5 -6 11 -6 q3 0 11 17q4 -12 13 -35q-2 75 -1 111q0 -27 -12 -58q-5 26 -20 66q5 3 9 3q5 0 5 -8q0 17 1.5 52t1.5 52q16 0 24 8q-5 5 -5 14q0 12 11 32q-8 19 -30 30q9 21 28 50q5 0 8 -5q0 -22 1 -23q5 35 7 102q-11 7 -11 34q0 -12 -2 -27q-7 0 -21 -3t-21 -3q-6 0 -17 14t-15 16 q-20 -12 -18 -12q-5 0 -15 10q0 5 4 8h53q11 26 31 68q-18 6 -18 31q0 16 11 30l24 -6q0 6 -1 19t-1 19q0 -8 -8 -8l-7 3q0 13 15 16q-2 32 -2 55q0 27 3 42h50q2 -5 2 -10q0 -12 -8 -22q18 -31 17 -55q25 0 25 -13l14 26q2 5 7 12v0zM571 398l-8 431q-18 -25 -68 -66 q0 -34 -6 -45q13 -84 10 -103q13 -19 13 -32q0 -18 -17 -26q14 -7 15 -24l8 -163q1 -14 -13 -25q4 -24 4 -37l-1 -7q-4 -2 -14 -6v36v3l-1 -3q-2 -17 -2 -70q4 9 12 24l10 -10q0 -6 1 -18v-19q35 23 45 77q13 65 12 83zM491 338v16h-10v-16h10zM454 220l-3 8l-14 -7v-8z M517 1121q-31 -65 -40 -99q-17 46 -17 85q0 37 21 79q0 -20 14 -53l-6 -3q8 -16 10 -26q12 11 18 17zM518 1097q-4 -40 -16 -51v36q0 15 16 15zM558 999h-21v16h21v-16zM548 972q-5 -3 -15 -11q-9 11 -9 14q0 17 17 17q3 -7 7 -20zM406 958h-21v16h21v-16zM520 695h-10v22 h10v-22zM538 563l-8 -16l-8 4l7 15zM448 657q-13 -26 -13 -44q-10 6 -16 6q1 4 8 14t7 14q0 5 -4 12q-18 -12 -26 -12q-7 0 -19.5 16t-12.5 22q0 8 28 21q1 -5 1 -8q0 -10 -6 -18q18 -8 53 -23zM548 492q-10 -25 -9 -44v-11q0 18 -13 70q9 -4 22 -15zM432 567h-8l-7 13l8 4z M561 432h-10v16h10v-16zM400 584q-15 0 -27 23q-5 0 -14.5 -10.5t-14.5 -12.5q0 12 -13 26q20 17 32 26q3 0 6 -12q5 5 14 16q0 -8 -5 -13q4 -4 17 -4q0 -8 -5 -13q5 -4 10 -4v-22zM455 532l-14 -15l-6 7l14 14zM427 508h-10v22h10v-22zM383 549h-22v22q22 0 22 -22z M369 424q-2 -2 -6 -2q-7 0 -20 12q13 13 22 20q0 -33 3 -32q1 0 1 2z" />
<glyph unicode="r" horiz-adv-x="886" d="M1097 1481q-32 -16 -51 -16q-5 0 -16 6.5t-18 4.5q22 7 41 7q6 0 21 -1.5t23 -0.5zM1002 1490l-22 -15l-5 9l21 14zM832 1520l-4 -9l-27 14l3 9zM790 1532l-5 -9l-22 15l6 8zM412 1535q-18 0 -18 -6v2q1 13 6 13q6 -9 12 -9zM782 -6h-239l-151 627h-96v-627h-104v1117 q0 23 -10 41v-1152h-129v200q-11 11 -18 12l18 20v1286q27 -4 56 -4q33 0 68 5q2 -15 2 -43q2 -5 8 -5q4 94 14 199q0 -120 13 -163q28 2 66 2q74 0 185 -8q5 4 5 9q-1 4 -4 7q15 -16 21 -16q10 0 9 10l13 -16q15 8 22 8q6 0 5 -11q223 -71 223 -425q0 -135 -25 -213 q-31 -96 -120 -183zM-6 223h-10v16h10v-16zM194 1388v70h-11v-70h11zM194 1358v22h-11v-22h11zM529 1064q0 182 -83 214q0 -14 -4 -18q-2 12 -17 30h-22q2 -8 2 -14q0 -10 -5 -16q-12 12 -12 21q0 -24 -18 -24q9 0 9 -4q-2 -5 -6 -9q8 4 15 4q15 0 17 -11q3 -20 4 -22 q-2 -3 -6 -3q-1 0 -5 2t-4 7q-1 -8 -11 -16l-10 10q7 7 10 14l-20 -35q-8 8 -25 17q-6 -30 -23 -84l-9 10q8 13 8 21q0 7 -6 11q0 -6 -6.5 -15.5t-6.5 -15.5v-300h116q118 0 118 226z" />
<glyph unicode="s" horiz-adv-x="826" d="M354 1772h-10v16h10v-16zM360 1706l-7 -27h-10l7 27h10zM362 1595q0 -20 -15 -34v21zM368 1517h-15v10h15v-10zM442 1216h-10l-7 28h10zM596 1070h-8q-10 0 -25 2q16 6 33 17v-19zM479 1134q-10 1 -27 1l8 16q6 -6 19 -17zM550 1061h-16v10h16v-10zM427 1137h-16v10h16 v-10zM605 992l-19 -46l-8 3l19 43h8zM603 924q-9 -2 -28 -6q6 8 20 22q4 -5 8 -16zM447 1066l-7 -15l-8 3l7 15zM612 887l-7 -34h-10l6 34h11zM611 818h-10v28h10v-28zM568 920q-8 -9 -30 -9q-1 -2 -1 -5q0 -10 7 -31q5 1 7 4q0 3 -5 8q8 -7 8 -16t-6 -19q-7 7 -28 55 q-11 1 -27 8q53 12 55 12q13 0 20 -7zM509 899q-13 -37 -13 -29q-13 13 -21 13l13 16h21zM-105 1471q-31 -16 -49 -16q-6 0 -16 6t-17 4q21 7 40 7q55 0 42 -1zM-197 1479l-21 -14l-5 8l21 14zM773 390q0 -259 -195 -353q-3 -8 -16 -27q-1 2 -1 4q0 5 7 11l-3 8 q-11 -5 -22 -17h-5q-26 1 -75 -10l10 -14q-20 15 -66 17l-70 2q-109 9 -198 125q-85 110 -85 223v42l215 35q0 -72 18 -131q26 -85 79 -85q12 0 35.5 -2.5t35.5 -2.5q30 0 44 9q-15 20 -38 20q-12 0 -33 -8q1 5 12 16q-15 13 -47 37q8 0 22 13l-10 -14l14 -9q0 4 5 20 q4 13 4 19v180q0 6 -5 17.5t-5 18.5q0 11 3 34.5t3 35.5q0 18 -3 22q-26 24 -70 65q-69 68 -149 157q-60 67 -88 142q-19 51 -19 161q0 164 92.5 266.5t255.5 102.5q106 0 191.5 -61.5t111.5 -163.5l23 -89q2 -7 4 -10v-33q-49 -4 -142 -20q-4 -1 -13.5 -8t-16.5 -7 q-3 0 -3 9q-2 2 -6 2q-71 0 -88 4q17 4 44 2l9 10v21q-9 9 -28 30q4 13 4 26q0 77 -99 77q-41 0 -41 -41q0 -25 9 -110q10 -89 16 -103l-1 -10q-1 -30 17 -49q-2 -22 -6 -44q-6 0 -6 -3q3 -4 0 -7q0 -25 21 -25q5 0 5 6q1 -1 1 -3q-1 -4 -3 -6l15 -9q5 6 5 18q3 -30 88 -106 q5 5 15 16q-4 -7 -12 -19q18 -11 45 -38h16q6 6 6 24q2 -19 10 -55q157 -171 157 -355zM375 423q-6 -9 -6 -14q-5 5 -17 12l9 -7q8 7 14 9zM386 389q-2 -14 -2 -37q0 16 -19 16v25q1 -4 7 -15zM377 344h-8l-8 14l9 3zM646 43l-6 -5l-15 14l6 6zM529 1219l-8 3l-7 -15l8 -4z M368 1303q-75 -39 -75 -143q0 -73 68 -173zM492 539q-11 7 -27 21v-53q13 25 27 32zM457 544v20q-11 18 -39 54q-8 -12 -8 -26q0 -9 24 -23q-3 -19 -12 -49h23q0 20 12 24zM512 499l-9 3l-7 -15l8 -4zM492 491q-9 9 -22 9l8 -28q0 19 14 19zM456 506h-28q5 -14 22 -34 q0 -3 6 34z" />
<glyph unicode="t" horiz-adv-x="694" d="M510 1231q0 -20 -9 -29q-6 37 -6 36q9 -7 15 -7v0zM507 1137h-10v52h10v-52zM601 1004h-10v34h10v-34zM607 974h-9l-7 14l8 3zM554 1048l-21 -56h-9l22 60zM923 485h-10v16h10v-16zM607 762h-10v59h10v-59zM891 463h-16v11h16v-11zM974 971q-38 26 -191 26 q-57 0 -132.5 -28.5t-116.5 -66.5v-2q-1 -8 6 -9h-4q-7 0 -19 -7q6 -24 29 -64v-27q-15 -6 -13 -37q-8 7 -17 6v-2q0 -8 -3 -15q3 -62 3 -58q0 -24 -9 -32q3 -14 3 -29q0 -22 -8 -46q-1 27 0 70q1 54 1 70q0 94 -13 144q-16 -18 -16 -35q0 -16 13 -31q-8 7 -18 6 q-16 -35 -16 -82q0 -12 29 -56q-11 1 -20 11q-14 -44 -14 -106q0 -64 14 -144q-10 -44 -10 -133v-292h-215v707l-16 16q-6 -7 -12 -12q-8 7 -8 27q0 9 12 27q17 24 18 26q-12 0 -21 11q-7 -8 -6 -19q-7 16 -23 16q8 0 14 6q-3 7 -11 19l13 -5l-1 3q0 13 17 38q-8 6 -18 16 q8 12 19 34l-1 -1q3 -8 13 -17q-2 54 -2 145q0 168 18 242q-6 25 -181 24v23q13 8 41 22q-50 51 -71 51q-4 0 -28 -5v119h687v-209q-20 -6 -126 -6q-51 0 -61 -20q-7 10 -24 25q-10 -7 -27 -23v-413q8 -2 15 -11q31 20 31 81q0 73 -4 165q10 7 21 19q0 -20 -2 -61t-2 -62 v-83q9 1 21 1l-2 1q6 11 83 45q104 45 203 45q64 0 83 -4q33 -6 75 -34zM554 636h-9l-7 20l9 3zM484 684h-10v28h10v-28zM167 1002l-5 -7l-15 15l6 6zM472 636h-10v22h10v-22zM183 928h-22v11h22v-11zM517 528q-8 0 -15 -8v0v0v39zM145 895h-11v28h11v-28zM168 871h-10v22 h10v-22zM472 557h-10v22h10v-22zM174 817h-10v16h10v-16zM525 454h-10v17h10v-17zM151 839l-7 -52h-10l6 52h11zM187 743q-1 14 -15 14l15 16v-30zM508 352h-11v155h11v-155zM489 437l-15 -15l-5 6l14 15zM69 799h-11l-6 52h11zM163 704q-4 8 -11 15q-1 -15 -14 -42v16 q1 13 -7 37q18 0 28 1q1 -9 4 -27zM508 344l-7 -58h-10l6 58h11zM95 736q-18 -25 -48 -77q-5 5 -11 5t-11 -6q7 6 30 44q18 29 40 34zM507 213h-10v58h10v-58zM508 129h-11v76h11v-76zM16 631l-14 -22l-8 6l14 21zM507 26h-10v28h10v-28zM428 1272v10h-21v-10h21zM306 1361 l-14 16q-20 -4 -50 -14v-13v-21v-6h1v0h27q8 23 36 38zM513 1058v16h-10v-16h10zM294 1309h-22v-29l-10 6v0q-10 0 -14.5 -6.5t-4.5 -16.5q6 0 14 -7q8 6 37 53zM229 825v10l-27 7v-10zM229 744q0 15 -7 23q-13 -13 -13 -24q7 1 20 1z" />
<glyph unicode="u" horiz-adv-x="921" d="M503 1668h-11v16h11v-16zM515 1639h-11v15h11v-15zM497 1623l-8 -15l-9 3l8 15zM484 1522h-10v33h10v-33zM484 1486h-10v16h10v-16zM478 1346h-10v74h10v-74zM478 1317h-10v15h10v-15zM493 1065q-8 0 -13 5q-5 -9 -7 -35v58q10 -11 20 -28zM466 1110l-6 -103h-10l6 103 h10zM1046 482l-8 -15l-9 3l8 15zM1007 433l-29 6q-2 8 -7 15q5 0 15 -10l9 15q-2 5 -21 23q3 -2 7 -3q5 0 13 5q0 -5 13 -19v-32zM460 983h-10v16h10v-16zM923 482q-19 -23 -38 -56q-12 12 -19 12q-5 0 -5 -12q-7 9 -7 19q0 5 4 16t4 17q0 10 -7 19q1 -3 4 -6q18 27 18 40 q8 -18 25 -52q4 6 4 11q11 -3 17 -8zM994 374q-11 4 -35 27q22 0 35 1v-28zM846 482q0 -12 -11 -32q3 6 3 12t-3 11q-7 -5 -17 -15q-10 -141 -32 -212q-36 -120 -120 -169q-20 -9 -41 -18q-23 -12 -23 -34v-7q-13 4 -17 4l-29 -16q-1 -5 -1 -8q0 -4 1 -7q-20 -20 -27 -33 q-11 9 -32 29q-62 -47 -63 -47q-4 0 -14 1h-15q0 17 -3.5 52.5t-3.5 52.5q0 60 13 168q9 55 19 160q-5 -1 -5 -6q-5 21 -5 85q0 36 8.5 106.5t8.5 106.5q4 -28 13 -82q3 2 11 20q6 15 12 15t10 -3l1 -3q9 7 8 24q0 8 2 -29q-5 0 -15 -11q-11 -14 -15 -16h-1l2 -2l8 -1 q9 6 32 17q0 -9 -17 -25q5 -5 10 -5q6 0 13 7q-4 -7 -11 -22q-12 0 -21 17q-21 -31 -21 -50q0 -5 4 -9q21 4 24 -13l6 -34q10 8 10 16q0 4 -3 8q24 -47 33 -77l7 -3q-1 -4 -8 -11q6 -6 12 -6q-12 2 -20 -14q-1 6 -13 17l-10 -9q2 -13 10 -38q5 5 7 15v-22q6 -5 31 -5v-45 q-7 4 -15 11q-8 -2 -17 -15q0 9 -12 20q0 -1 -2 -15q-1 -8 -8 -8q-8 0 -12 1l34 -25q6 0 6 -3q-1 -5 0 -8q64 41 64 226v1038l8 -6q19 2 49 2q56 0 174 -3v-1019l12 -10q12 11 14 17q3 -3 3 -8zM847 511l-8 -15l-9 3l8 15zM454 811l-7 -22l-9 3l7 19h9zM1124 85l-7 -6 l-14 15l6 6zM883 240h-9l-7 14l8 3zM551 506l-8 -16l-8 4l7 15zM571 496l-5 -63q-1 7 -9 22q-9 -5 -25 -17v22q28 14 39 36zM923 101h-4h-8q-20 0 -36 5l10 22v-19q17 -8 38 -8zM398 239l-13 -216q-67 7 -147 70q-85 68 -110 148q-19 65 -25 128q-2 31 -17 41q-1 8 -1 17 t1 19q-14 13 -14 15q0 8 15.5 38.5t15.5 35.5v973h231v-1182h45zM856 137h-17v10h17v-10zM862 121q-6 -7 -18 -18l7 6q-5 5 -18 17zM569 380h-10v16h10v-16zM819 127v-11q0 -33 -2 -41q0 7 -4 13.5t-4 7.5q1 3 5 6q-17 17 -17 19q8 2 22 6zM397 363h-47q17 11 39 34z M406 -146h-10v80h10v-80zM400 -275h-11v51h11v-51zM400 -299h-10v16h10v-16zM394 -402l-8 -15l-8 3l7 15zM875 461l-3 8l-14 -7v-8zM454 538v16h-10v-16h10zM501 420l-3 8l-15 -7v-8zM494 368q0 6 -8 17q-7 -6 -7 -26q0 9 15 9zM484 342l-8 3l-8 -15l9 -4zM436 275l-8 17 l-8 -3l7 -14h9zM430 234v22h-10v-22h10z" />
<glyph unicode="v" horiz-adv-x="840" d="M393 1847h-11v17h11v-17zM400 1779l-8 -28h-11l8 28h11zM401 1665q0 -21 -16 -36v22zM409 1585h-17v10h17v-10zM490 1274h-11l-7 28h11zM531 1189q-11 1 -30 1l9 17zM474 1192h-18v11h18v-11zM496 1119l-8 -16l-9 4l8 16zM836 1520l-148 -848q5 25 17 -289q0 -4 4.5 -14 t4.5 -16v-69q-34 -15 -43 -31q0 13 -5 18l-10 -9q5 -5 5 -22q6 3 19 7v-4q1 -6 8 -11l-1 2q-5 1 -12 1q-15 0 -15 -5q2 -6 6 -10q-4 4 -13 15q-8 -7 -8 -12q0 -3 5 -8t5 -10q-10 6 -22 18h-2q-3 0 -8 -4v-35q7 -6 13 -9q0 -11 -12 -22l9 -9q5 4 23 4q-20 -20 -23 -44 q-17 -3 -17 -19q-6 7 -21 17l1 -4q0 -12 -11 -35q12 -12 18 -14q-15 0 -27 11q-4 -20 -12 -54h-256l-305 1514h244l186 -947q19 77 52 280l1 2q0 4 -11 9v27q8 -5 14 -5q3 18 12 51q-19 11 -41 11q-6 -19 -6 -49q0 -53 14 -75v-33q-11 -4 -13 -30q-2 -29 -11 -37q0 36 -2 86 q0 9 -9 42q-8 26 -4 43q-9 4 -25 14q13 4 13 15q0 9 -6.5 28t-6.5 29h7l-14 313q0 2 11.5 29t11.5 41q-1 -25 -1 -49q0 -108 25 -208h-2q-6 0 -6 -12q0 -24 26 -48q-8 -14 -8 -26q0 -9 4 -16q-3 -9 -3 -16q0 -25 35 -36l12 11l97 556h237zM710 218h-11v28h11v-28zM713 167 q0 4 -2 -26q-5 9 -16 19q12 7 18 7zM694 176h-1h-3q-15 0 -25 -20v5q0 14 5 31q8 0 24 -16zM715 126l-4 -8l-17 8l4 8zM716 64l-7 -6l-16 15l7 6zM639 51l-12 -22l-9 4l11 21zM-203 52l-7 -6l-16 15l6 6zM638 248l-7 23l-10 -3l8 -20h9zM587 67v22h-11v-22h11z" />
<glyph unicode="w" horiz-adv-x="1169" d="M646 2136h-16v10h16v-10zM500 1841h-11v22h11v-22zM929 1426l-7 -16l-9 3l8 16zM500 1733h-11v64h11v-64zM500 1656h-11v34h11v-34zM822 1143h-10v34h10v-34zM816 1035h-10v28h10v-28zM835 993q-7 1 -21 1l21 37v-38zM858 970h-11v22h11v-22zM856 950l-23 -7v9l20 7z M858 910h-11v22h11v-22zM1165 1523l-221 -1496h-201l-72 436l-9 10q-12 -4 -36 -14q10 9 10 20q7 -4 14 -12q13 6 13 16q0 5 -2 14t-2 14q-7 3 -26 10v-35l-13 11q-4 -3 -4 -9q0 -8 6 -20q-17 17 -17 23q0 2 10 10q5 39 26 89q-4 4 -17 4q-1 5 -1 11q0 9 2 21q-5 18 -5 27 q1 5 2 7l7 1q0 37 -16 63q-12 -6 -37 -17q0 18 5 37q-7 7 -13 11q-70 -360 -69 -484q-9 10 -9 110q0 47 2 112q-8 2 -21 10q2 -92 -3 -218q-16 -94 -49 -282h-195l-221 1496h219l118 -858l125 781q-2 -77 13 -157q-10 -21 -10 -18v-327l9 -5q3 3 3 297l10 17q1 -7 2 21v12 v74v220q0 15 1.5 45t1.5 45q0 -20 1.5 -59t1.5 -59q18 -2 50 -2q48 0 140 2l94 -553q0 17 25 47v1q-6 -7 -17 -28v-82q13 -13 21 -19q-7 -1 -15 -11q7 -7 11 -10l16 12q6 -3 18 -12q4 4 4 17q2 -6 13 -17l88 650h219zM380 1011h-10v16h10v-16zM614 687l-7 -27h-11l7 27h11z M587 679q0 -7 -7 -20q-11 -5 -16 -5l13 34q10 0 10 -9zM610 623q-14 0 -14 -15q0 9 -13 9l-13 14q0 7 14 21h26v-29zM611 546q-6 6 -20 17q-14 -29 -14 -46q0 -18 15 -24h-28q5 14 5 26q0 18 -11 31h19q6 6 7 37q11 -13 27 -41zM592 457q-9 -31 -11 -49q0 11 -5 26.5 t-5 20.5v21q2 -1 7 0q5 0 6 -8.5t8 -10.5zM559 457h-10v16h10v-16zM601 409h-10v16h10v-16zM637 375l-8 -15l-8 3l7 15zM610 395q0 -9 -3.5 -26.5t-3.5 -26.5q-10 11 -10 30q0 23 17 23zM625 331h-10v16h10v-16zM621 294q-5 -8 -14 -17q1 5 1 8q0 4 -3 5q2 -1 4 -1q4 0 12 5 zM598 241q-19 17 -19 52v5q-16 27 -16 29q0 6 4.5 16.5t4.5 16.5q3 -6 3 -24q0 -12 23 -62v-33zM625 242h-10v16h10v-16zM548 289h-11v16h11v-16zM588 222l-18 -7v9l14 7zM500 248h-11v16h11v-16zM841 751q-4 -7 -12 -15q-1 6 -7 18v-5q-1 -16 16 -28q-11 -12 -11 -33 q0 -6 1 -12q13 25 13 75zM840 659v16h-10v-16h10zM622 731q-4 13 -27 45q0 26 -6 55q0 -30 -6 -36q-5 1 -10 7q2 -5 2 -11q0 -15 -11 -30q5 9 14 29q12 -46 12 -72q6 9 19 30q6 -6 13 -17zM482 819h-10l-7 -64h11zM655 534l-6 52h-10l6 -52h10zM482 747h-10l-7 -52h11z M476 630v51h-10v-51h10zM482 596l-9 3l-7 -15l8 -4zM494 552v16h-10v-16h10zM482 574h-10l-7 -58h11z" />
<glyph unicode="x" horiz-adv-x="937" d="M270 1600l-8 -16l-9 4l8 15zM760 1026h-36q7 6 7 21q18 0 29 -21zM766 888l-29 -7v22l14 13q9 -6 15 -6v-22zM917 685h-9l-8 14l9 3zM779 811q3 0 -30 6q12 10 28 28q1 -22 2 -34zM767 795q-13 0 -37 -7q1 -8 12 -25q-8 0 -24 2t-25 2q-8 0 -27 -17h-28v28q14 14 53 37 q15 -30 20 -30q10 0 28.5 5t27.5 5zM800 643h-11v28h11v-28zM131 1260h-16v11h16v-11zM114 1252q-25 0 -34 5q-1 -1 -1 -2q0 -5 10 -14q-33 0 -49 7q9 0 28 10.5t24 10.5t22 -17zM883 -1h-244l-177 464l-171 -464h-238l283 768q-16 42 -53 138q-5 -5 -5 -18q1 5 1 13 q0 48 -39 112l-10 -20q-4 -4 -22 -4q-2 0 -7 1q-2 11 -2 25q0 13 2.5 39t2.5 39q0 48 -27 87h-22q-7 -7 -7 -18q-2 7 -2 17v12h30q-30 51 -43 49v1q0 8 12 31q-16 15 -22 15q-13 0 -40.5 -8.5t-41.5 -8.5q0 15 1 23q5 -1 14 -9.5t16 -8.5v48q-6 -9 -18 -23q0 9 -14 26.5 t-24 21.5q0 -7 -7 115q0 -3 1 -3l1 1q2 5 6 26q7 31 19 95q37 32 38 49v-40q17 11 17 30q15 -7 22 -10.5t9 -5.5t4 -2q3 1 6 4q-17 16 -17 26q24 -12 38 -12q4 3 4 7q0 5 -6 10q6 -2 17 -5v-64h-4q-15 0 -37 -11v-6l-1 1q1 1 2 1q6 2 27 2q2 -2 2 -4q0 -5 -12 -16 q16 -9 34 -34q5 6 22 6q4 15 4 25q0 3 -3 14l-2 6q7 15 22 45v-6q0 -21 6 -30q6 5 6 10q0 3 -3 6h5q13 0 33.5 -10.5t37.5 -10.5q4 -1 5 -3q-4 -6 -13 -15q-3 -1 -3 1q7 -1 13.5 -2.5t6.5 -12.5q3 -6 14 -6v5q0 9 10 19v-3q1 -14 -11 -46q16 -4 43 -13q-23 3 -21 3 q-11 0 -11 -17q-4 2 -10 3l-2 -2q2 -5 6 -12q0 -61 50 -197q43 -114 84 -192l146 428h239l-271 -727zM264 935h-11v16h11v-16zM237 918q-14 -3 -19 -3q-6 0 -6 6v2q0 3 10 14q5 -9 15 -19zM294 852h-9l-7 20l9 3zM208 911h-10v17h10v-17zM307 786h-11v22h11v-22zM301 742 l-8 -23l-9 3l8 20h9zM264 695l-7 -58h-10l6 58h11zM202 679h-10l-7 40h11zM294 1532l-7 17l-9 -3l7 -14h9zM307 1496v22h-11v-22h11zM261 1547v10h-17v-10h17zM275 1518l-10 7q-3 -3 -25 -3q26 0 35 -4zM88 1405q-18 -8 -33 -8q20 -9 19 -9q14 0 14 15v2zM237 1034h-27v-12 q0 9 27 12z" />
<glyph unicode="y" horiz-adv-x="826" d="M1184 1738h-65v10h65v-10zM1105 1731l-28 7v11l28 -7v-11zM1067 1731q-17 0 -50 -10.5t-50 -10.5q-11 0 -34 4.5t-35 4.5q12 0 36.5 10.5t32.5 10.5q6 0 17 -3t17 -3q19 5 56 18q0 -21 10 -21zM880 1725v-8q-1 -4 -1 -7q-6 -6 -29 -6h-14q-19 0 -22 3q3 -3 21 -3 q6 0 10 9t11 9q11 0 17 -6q7 3 7 9zM792 1706l-17 -13q8 8 8 32q4 -6 9 -19zM613 1832l-15 -15l-6 7l14 14zM773 1722q-12 -48 -68 -48q-7 0 -9.5 6t-8.5 6q4 0 -69 -11q16 17 39 17q11 0 11 6l13 -12q18 18 33 18q4 0 7.5 -3t7.5 -3t4 9q1 3 5 3q22 0 35 12zM436 1822 q-24 -3 -51 -22q0 6 -13 19q-6 -3 -11 -3q17 9 15 9q3 0 9 -12q3 5 11 17zM351 1818l-7 -29q-4 2 -10 2q-12 0 -32 -8q1 13 20 21q-8 7 -12 14h41zM-41 1870q-3 -4 -13.5 -7.5t-14.5 -7.5q0 7 -6.5 20t-6.5 20h23q-12 -2 -12 -12q9 -3 30 -13zM822 1495q0 1 -102 -327 q-67 -216 -110 -361q-21 -63 -52 -181q-1 -5 -1 -120v-504h-162v25q-13 7 -42 6q-4 101 -8 203q-9 153 -22 186q11 14 11 18v154q-8 -6 -43 -47q1 -11 31 -41q-7 -7 -7 -21q-23 6 -21 6q-25 0 -55 -30q2 23 -29 33q-25 5 -51 10q0 32 12 34q0 18 -25 34q-21 14 -42 17 q7 8 7 27q36 10 39 11q19 8 28 26h22v-13q0 -7 1 -19v-19l14.5 -14.5t2.5 -25.5q7 0 20 -2.5t20 -2.5q39 0 39 27q0 7 -64 59q-4 36 -10 108q-46 21 -46 50q0 11 17 28.5t28 17.5q12 0 18 -6l9 11l-246 688q9 -11 48 -11q-14 0 191 11q58 -138 77 -334l26 -342q1 -3 9 -11 q6 27 6 65q0 50 -10 118q-10 61 -10 55l15 679q1 -35 1 -74q0 -50 -3 -149t-3 -148q0 -208 66 -359q8 5 18 16q2 10 4 27q16 5 45 16q53 181 112 417h227v-21zM454 972h-23q9 -17 7 -34zM366 745v28h-11v-28h11z" />
<glyph unicode="z" horiz-adv-x="888" d="M225 2137l-7 -28h-10l7 28h10zM455 1799l-7 -34h-10l6 34h11zM227 2023q0 -21 -15 -35v22zM460 1743l-8 -16l-8 4l8 15zM234 1943h-16v10h16v-10zM464 1626q-8 2 -15 19.5t-21 24.5q14 17 20 52q13 -16 12 -47q0 -37 4 -49zM463 1612v-2q0 -20 -10 -20q-1 7 -10 14 q7 3 20 8zM406 1604l-9 -3l-19 33l8 4zM462 1583q0 -27 -7 -42q0 11 -6 18q-8 -4 -15 -4q11 8 28 28zM223 1766q-6 -6 -12 -6t-12 6q4 5 8 16zM310 1632h-11l-6 28h10zM348 1547q-10 1 -28 1l8 17q7 -6 20 -18zM294 1551h-16v10h16v-10zM186 1759q-52 5 -55 5q-30 0 -87 -15 t-87 -15q-7 0 -24 16q7 0 20 -2t19 -2q13 0 36.5 9.5t35.5 9.5q7 17 19 17l5 -2l-4 -8l5 -2q7 0 13 18q-1 -4 -5 -14q2 -4 7 -4q6 0 16.5 6t16.5 6t6 -10v-2l12 12q11 -5 22 -5t21 5q8 -7 8 -23zM485 1292l-7 -34h-10l6 34h11zM484 1222h-10v28h10v-28zM-74 1731l-28 7v11 l28 -8v-10zM424 1236l-8 -16l-8 4l7 15zM360 1269q0 -24 -6 -27q-20 -10 -22 -12q10 -10 10 -21l-22 20v21q14 6 40 19zM370 1176l-9 -4l-13 30h8zM353 1152q-7 3 -21 3q5 7 13 23q8 -7 8 -21v-5zM309 1182l-7 -16l-9 4l8 15zM332 1007q-10 -10 -16 -18q0 -2 -1 33z M784 1302q0 -16 -276 -688q4 -12 9 -32q-3 9 -13 23q-6 -11 -6 -21q0 -6 2 -11v-39q-19 0 -23 -6q-26 -41 -128 -312h434v-213h-680v212q151 387 151 382q0 9 -10 8l16 5q3 19 3 18q0 5 -10 11q7 -1 15 -10q3 6 9 16q-20 22 -36 30q9 0 22 15q0 -6 -10 -15q6 -3 14 -9 q5 17 5 31q0 23 -13 37v31q14 25 14 71q0 17 -3.5 52t-3.5 52q0 34 8 82q1 -18 27 -57q-7 -18 -7 -52h15q7 6 7 12q6 5 6 10l-1 44q9 -6 20 -24q8 8 13 12l14 -15q-4 -3 -9 -3q-9 0 -23 7q-5 -17 -5 -32q0 -12 3 -23q13 4 13 17q0 6 -3 12l21 -5q22 0 22 27q0 6 -1 13 q7 12 7 20q0 19 -25 19q-17 0 -23 -6q16 29 53 87l-9 9l-13 -12q-5 10 -22 24q-2 -11 -16 -33l5 -2l11 5v-42q-5 2 -33 -6q-1 6 -7 16q13 0 24 12q-2 7 -19.5 21t-17.5 20q0 8 12 16t14 11q9 0 20 -12l1 2q0 9 -10 27q16 0 27 -11q11 11 11 24l13 -12q5 4 5 12q0 14 -14 40 l15 15q28 -14 51 -14q-6 -6 -6 -30q8 -2 21 -10q7 3 16 10q-1 6 -13 11q15 8 15 24q0 -10 6 -15q17 28 52 110q-29 4 -59 4q-34 0 -69 -5q0 -10 10 -19q1 7 8 18q1 -2 1 -7q0 -12 -8 -29q-1 1 -13 24q-10 18 -18 18q-23 0 -23 -24q-21 24 -50 24q-27 0 -34 -7t-7 -34 q0 -70 14 -75v-33q-10 -4 -12 -31q-3 -30 -10 -37q0 50 -2 87q0 11 -6.5 35t-6.5 37q0 7 1 12q-9 4 -24 13l12 30q-16 6 -46 6q-10 0 -30 -1t-30 -1v215h92q5 0 7.5 13.5t4.5 15.5q-16 39 -16 78l1 -4q4 10 20 110q3 -45 3 -122q0 -38 -1 -86h538v-218zM241 814 q-7 -9 -7 -15q-5 5 -17 13l9 -7q4 5 14 10zM518 526q0 3 -2 -26q-5 8 -15 18q6 4 17 8zM252 780q-2 -6 -2 -39q0 16 -19 16v26q2 -9 7 -15zM519 485l-4 -9l-15 8l3 9zM243 733h-9l-7 14l8 4zM520 423l-6 -6l-15 15l6 6zM448 410l-11 -23l-8 4l11 22zM466 1128l-8 3l-8 -16 l8 -3zM458 1096q-11 11 -30 37q5 5 5 9l-3 6q-9 -31 -9 -50q0 -15 6 -22q4 -1 8 -7q-19 -10 -19 -22q0 -4 2 -15q1 -10 0 -16q14 26 34 71q-12 0 -25 9h31zM340 1079l-14 26h-9l14 -29zM361 885q-9 9 -23 9l9 -29q2 10 14 20zM325 900h-29q5 -15 22 -35q3 12 7 35z" />
<glyph unicode="{" horiz-adv-x="592" d="M235 2077h-8v23h8v-23zM245 2054h-9v17h9v-17zM232 2043q0 -14 -11 -33q-7 1 -7 12q0 15 18 21zM225 1995l-5 -41h-8l5 41h8zM221 1930h-9v17h9v-17zM221 1862l-5 -70h-9l5 70h9zM227 1587q-4 5 -9 5q-2 -2 -2 -7q0 -9 7 -26q-6 3 -13 4v47q9 -8 17 -23zM694 1087h-8v18 h8v-18zM206 1623l-5 -84h-8l5 84h8zM670 1113l-6 -13l-7 3l6 12zM482 1278h-9v12h9v-12zM694 1044h-8v13h8v-13zM201 1516h-8v17h8v-17zM644 1083q-9 0 -9 -4q1 -3 4 -6q-18 4 -37 27q8 -4 21 -18l7 7q-7 16 -24 18q5 4 7 10q0 -12 10 -12q4 3 4 10q4 -11 17 -32zM587 1100 l-14 -6v7l11 6zM196 1454h-8v17h8v-17zM572 1114q-14 -18 -32 -51q0 14 -14 14q-5 0 -5 -7v49q0 1 -1 3l-1 -4q8 14 16 35q13 -31 21 -48q8 9 16 9zM498 1159l-3 -5q2 2 2 4q-1 6 -5 9q-4 -5 -11 -14q-6 6 -6 14q0 2 12 14q11 -15 11 -22zM629 1025q-9 7 -28 22q18 0 28 1 v-23zM525 1082h-8v18h8v-18zM514 1110q0 -12 -15 -25q3 4 3 11q0 5 -1 10q-30 -24 -31 -24q-7 0 -7 12q2 -4 9 -8q4 7 13 40q-9 -1 -33 -1q5 33 5 27q7 -4 27 -14q0 -12 11 -33q8 8 8 20q0 6 -2 13q13 -13 13 -28zM472 1101h-7l-6 12l7 2zM197 1381l-6 -22h-8l5 22h9z M740 785h-27v8h27v-8zM540 935h-9v17h9v-17zM544 914l-5 -5l-17 16l5 5zM549 887h-8v13h8v-13zM506 912l-7 -2l-6 14h7zM525 861l-6 -4l-21 21l5 5zM531 855v-1q0 -10 -6 -10q-4 7 -9 7q15 2 15 4zM571 797q-30 6 -30 20v8v-16q13 -4 30 -12zM518 832h-13v8h13v-8zM523 819 q0 -9 -14 -15q4 3 10 9q-7 3 -19 11q8 -2 23 -5zM494 795q-9 2 -9 8q-15 7 -15 12q0 9 19 9q0 -16 5 -29zM167 1040h-7l-6 11l7 2zM537 -18h-127q-105 0 -159 80q-47 69 -47 179q0 46 39 95q-2 1 -6 2q-8 0 -21 -8q-3 13 -11 37q12 -3 24 3q-8 8 -19 8q3 19 -6 40v161 q0 37 -28 75q-31 42 -73 43v127q30 1 87 79l-8 7q-8 -6 -14 -19v50q-1 32 -1 50q-8 -8 -8 -14q2 20 22 32v11l-8 -5q3 59 -13 68l4 -1l7 2q-7 6 -19 21q6 -3 16 -9q1 6 7 21l-7 5q-4 0 -4 -7q19 24 19 138l-1 24q4 -52 10 -100q29 139 29 230q0 14 -1 27l11 -10q18 43 74 75 q52 30 101 30h131v-133q-19 3 -37 3q-136 0 -136 -110v-367q0 -48 -31 -98.5t-75 -68.5q43 -22 74 -68q32 -49 32 -94v-258q0 -127 11 -155q25 -67 129 -67q16 0 33 2v-133zM173 879q-22 11 -31 8q16 25 16 35q0 -3 -1 -11.5t-1 -13.5v-5q0 -13 17 -13zM158 602h-9v65h9v-65 zM153 497h-9v27h9v-27zM153 478h-9v13h9v-13zM148 395l-6 -18l-7 2l6 16h7zM143 354h-8v13h8v-13zM535 1116v17h-9v-17h9zM486 1159v12h-8v-12h8zM201 1170l-7 2l-6 -12l7 -3zM206 1135v13h-8v-13h8zM206 1116v12h-8v-12h8zM186 947l-12 12l-5 -5l12 -12zM177 911v18h-8v-18 h8zM200 732q-17 16 -17 26q-2 -6 -2 -27v-10q7 0 19 11zM203 709h-7l-8 -31h8zM187 709h-8l-5 -15l7 -3zM335 466q-24 -3 -22 -3q-2 0 -16 9q0 -17 -10 -27q6 3 12 3q7 -5 15 -14q0 -5 -9 20h24q2 7 6 12zM243 386l-2 7l-16 -6v-7zM364 194q-22 11 -27 12q-6 0 -31 -13 q16 0 24 -10q1 -8 6 -8t28 19z" />
<glyph unicode="|" horiz-adv-x="393" d="M157 1017h-9l-7 14l8 3zM215 956l-13 -40l-8 3l13 37h8zM289 -166h-186v2199h186v-664q-30 -24 -25 -66q-5 26 -37 47h-16q-6 -7 -6 -11t8 -4q-1 -1 -2 -1q-3 1 -6 4l-9 -10q4 -4 15 -26q4 4 11 12l15 -15q-22 -6 -22 -19q0 -6 3 -13q10 0 10 12l-2 5q13 -10 23 -43 q7 -26 20 -26q5 0 5 11l15 -13v-167q-14 -1 -26 -1q-6 0 -18 24l-21 -23q-12 -4 -36 -18q-16 1 -48 87q-5 -16 -5 -32q0 -19 7 -37q-7 2 -25 17l-9 -9q23 -24 29 -47q0 1 -1 1q-3 0 -17 -14q0 -7 21 -7q7 0 8 5.5t7 5.5t27 -25v-4q0 -25 17 -76q8 7 13 11q0 -28 -2 -40 q3 8 12 23l12 -12q4 4 4 17l-1 8l-9 10q-3 -1 -6 -5q2 34 10 110q27 7 31 7q7 0 26 -20l-3 -880q-2 1 -4 1h-3q1 -7 1 -14q0 -34 -17 -47q-9 19 -29 53l-17 -71q-5 26 -37 47h-16q-6 -6 -6 -10t9 -4q-1 -1 -3 -1q-3 0 -6 3l-9 -9q5 -4 15 -26q4 4 11 12l15 -15 q-22 -6 -22 -19q0 -6 3 -13q10 0 10 12l-2 5q14 -11 23 -43q7 -26 20 -26q5 0 5 11l18 -17q-2 4 -2 6q0 5 8 5t21 -17t17 -19v-92zM150 1351l-6 6l-14 -14l6 -7zM151 1331h-10l-6 -27h10zM151 1116v16h-10v-16h10zM268 235l-8 3l-8 -15l8 -4z" />
<glyph unicode="}" horiz-adv-x="633" d="M270 1080h-8v17h8v-17zM161 1180h-7l-6 11l7 2zM216 1115q-8 8 -18 8q1 -2 2 -1q4 5 14 28q1 -11 1 -114v-56q-14 13 -23 40q6 4 8 9q3 -6 9 -12q2 6 2 13q0 9 -3 25.5t-3 25.5q0 20 11 34zM192 1039l-22 5v9l22 -6v-8zM151 1032h-8v13h8v-13zM170 1036l-8 -37h-7l8 37h7 zM215 959h-12v8h12v-8zM275 843h-8v31h8v-31zM215 910v-30q-11 3 -11 8v1q5 0 7 3q-4 4 -14 4q5 5 11 7q1 17 6 43q0 -6 1 -18v-18zM313 767h-8v17h8v-17zM529 681q-62 -16 -84 -65q-15 -34 -15 -108v-339q0 -69 -58.5 -130t-154.5 -61v146q57 31 57 120q0 33 -10 46 q14 0 19 3q-17 15 -17 42q0 11 7 16q-9 10 -13 7v18l10 -14q3 52 3 254q0 8 26 60q5 -5 14 -5v1q0 -9 -6 21q21 19 71 56q-74 45 -93 119q-3 10 -15 154l-4 -7q7 18 7 20v260q0 96 -132 96q-19 0 -38 -3v137h110q87 0 152 -60t65 -146v-381q0 -41 29 -81q31 -44 70 -44v-132 zM218 824h-8v50h8v-50zM282 769h-13v8h13v-8zM218 797l-6 -13l-7 3l6 12zM289 686h-7l-6 11l7 3zM218 733h-8v18h8v-18zM215 609q-6 -18 -6 -54q-12 17 -12 19q0 17 18 35zM184 577h-6l-6 11l7 3zM185 570l-3 -17h-8l3 17h8zM213 542l-2 -32h-9l3 32h8zM196 470h-12v8h12v-8 zM211 495v-35q-1 -24 -1 -36q-13 13 -13 26v39q9 6 14 6zM206 413h-13v8h13v-8zM213 377h-8v32h8v-32zM211 346q-7 7 -7 16q5 -18 5 -28v-6q0 -10 -4 -18q-1 1 -1 2q1 3 3 5q-3 3 -14 3v18q11 0 18 8zM189 344h-7l-5 11l6 3zM265 265l-15 -27l-7 3l15 27zM214 225 q-5 18 -21 51q6 0 17 20zM251 197h-8v17h8v-17zM213 187h-8l-5 37h8zM213 145h-8v12h8v-12zM206 -24q-52 4 -103 0v144q26 -4 52 -4t51 4v-144zM213 -80l-6 -19l-7 3l6 16h7zM316 1048q-5 -2 -11 -12q-6 12 -6 34v-3q0 -11 17 -19zM318 999v27h-9v-27h9zM303 1009v17h-8v-17 h8zM427 752q-8 24 -8 37q-11 -15 -17 -26q5 3 11 3q14 0 14 -14zM359 704l-3 6l-16 -5v-7zM339 683v8l-27 5v-8zM358 655q-3 -1 -9.5 -4.5t-11.5 -3.5q-6 3 -13 8v21q-4 -15 -20 -34q-4 5 -5 12q2 -13 22 -33q-10 -21 -33 -61v-36q7 -2 13 -5q0 12 5.5 34.5t5.5 33.5z M294 492l-7 4l-11 -16l6 -5zM368 297q-11 11 -11 18q-14 -14 -20 -14q-8 0 -23.5 1t-23.5 1q4 -4 3 -12q36 6 75 6z" />
<glyph unicode="~" horiz-adv-x="847" d="M664 1797q-14 -1 -42 -4q0 3 4 24q26 0 35 -5zM533 1899l-23 -14l-2 5l23 14zM480 1867l-20 -12l-2 5l20 12zM435 1843l-12 -16l-5 3l12 16zM677 1505h-16v19q0 9 16 34v-53zM384 1810l-10 -5v6l8 4zM743 1766q-10 -46 -64 -100t-99 -54h-40q45 17 45 47q0 4 -1 9 q-29 -39 -40 -39q-21 0 -31 14q-21 -21 -33 -21q-8 0 -31 49q-2 -11 -2 -32q-14 0 -27.5 7.5t-19.5 7.5q2 0 2 -1q0 -3 -29 -16q7 7 21 18q-69 38 -113 38q-68 0 -112 -93q-43 25 -66 41q36 80 68 114q47 48 118 48q12 0 35 -2t34 -2q20 -15 75 -41q59 -26 77 -26l2 -1 q3 3 4 11q8 -9 27 -19q12 0 28 -16q10 9 16 28q7 -4 12 -14q11 10 11 13q-1 2 -2 1q4 -2 7 -2q4 0 5 2q-2 -5 4 -17q-1 5 52 88q27 -16 42 -28q14 0 25 -12zM566 1557l-4 -14l-5 2l4 12h5zM500 1493h-16v6h16v-6zM598 1721h-6l-4 -24h6zM591 1668v24h-6v-24h6zM474 1727 l-5 2l-5 -10l5 -2zM435 1733l-12 28l-5 -2l11 -26h6z" />
<glyph unicode="&#xa1;" horiz-adv-x="423" d="M-67 -203q10 4 27 14q0 -6 6.5 -20t6.5 -20q-18 0 -40 26zM61 -64q37 16 50 16q7 0 22.5 5t21.5 5q-9 -18 -43 -21q-17 -2 -51 -5zM159 -44l14 21l8 -6l-14 -21zM340 351l7 27h10l-7 -27h-10zM375 390h11v-51h-11v51zM103 131q0 59 17 81q-10 5 -10 21q0 27 13 41 q3 -9 12 -24q2 3 2 15q0 6 -11.5 20.5t-11.5 20.5q0 24 35 71v39q-4 2 -14 10q-18 -40 -18 -88v12q0 14 2 44q3 36 3 58q0 17 6 223q5 10 21 18q-17 29 -17 69q0 34 5.5 102.5t5.5 102.5q0 53 -10 67h108q12 -10 14 -11q8 0 17.5 5.5t10.5 5.5q4 -24 4 -122q-1 22 -36 70 q-15 -17 -15 -34q0 -4 5 -45v0q6 -18 6 -19v0q-11 -24 -11 -62v-8q0 -10 1 -29v-22q0 -26 -6 -36q0 -14 12 -14q6 0 6 2v1v0q1 2 6 2q6 0 13.5 -10.5t11.5 -12.5q22 27 30.5 124.5t30.5 131.5q8 33 28 104l27 -161l15 11q0 -11 -4 -36t-4 -37v-5q4 -83 4 -76 q0 -112 -27 -252q0 13 -16 21q-6 -18 -6 -53h-30q-8 0 -15 -15v-23q8 -5 22 -15q6 0 24 17q-5 -14 -5 -25v-8q-10 -6 -20 -6q-9 0 -17 5v-50q0 -181 19 -353q-14 0 -24.5 -12.5t-13.5 -12.5q-4 0 -4 2q2 3 4 8q-1 2 -5 2q-7 0 -15.5 -5.5t-13.5 -5.5l-19 -18q0 18 -12 29 q-2 -3 -17 -17q0 6 -5 11q-10 -10 -14 -11q0 17 28 31q-25 4 -53 4q-32 0 -69 -5v137zM105 1464h216v-224h-216v224zM229 27v-22h10v22h-10zM114 236q29 -14 34 -14q0 4 3 13.5t3 13.5h1q-3 -4 -16 -17q-4 0 -12 2t-13 2zM141 459l8 -5l14 20l-8 6zM161 703q6 0 12 -5 q-6 -5 -6 -13q24 0 35 -6q0 -6 -5 -8h-19q25 -7 25 -13l16 3v143q-15 20 -38 49q-5 -24 -5 -78q0 -46 -15 -72zM287 666q4 1 25 1v22q-10 -6 -25 -23zM302 709l2 -2q9 -6 38 -6q21 0 23 28q-14 4 -31 19zM320 863v-21q23 7 57 7q-36 19 -38 22v0q-13 0 -19 -8z" />
<glyph unicode="&#xa2;" horiz-adv-x="624" d="M521 531q0 -251 -164 -279q0 -17 -10 -24q-4 9 -11 21h-9l-7 -32q-3 15 -22 28h-10l-4 -6l6 -2l-2 -1l-4 2l-5 -6q3 -2 9 -15l7 7q2 -3 9 -9q-14 -3 -14 -12q0 -4 2 -7q6 0 6 7l-1 3q8 -6 13 -32q5 -21 13 -21q3 1 3 6l11 -10l-2 4l5 3q8 -10 23 -22v-55h-112v178 q-68 21 -108 81.5t-40 138.5q0 4 5 291q-1 -12 18 -39q7 9 7 16q0 5 -6 13t-5 13q3 -4 8 -10q6 7 11 7l7 -7h1v6q0 -4 -19 26q-2 -6 -7 -18q-9 0 -12.5 5.5t-3.5 14.5l1 15q10 -5 15 -14l-1 14q0 18 10 27q-11 12 -25 9v121q0 56 19 85q7 10 23 30q-5 7 -14 36q9 4 25 11 q-3 6 -7 17q9 3 19 15q14 -10 39 -31q23 11 27 36q9 4 13 12v220h112v-128q-11 -9 -14 -23q5 -4 14 -14q-8 -19 -12 -19q-9 1 -12 -2v-13l12 -4l11 -20q13 2 39 7q-3 -21 -20 -21q-5 0 -9 4l-9 -9l3 -4q105 -31 136 -115q19 -50 19 -184h-41q-3 17 -50 38l-4 -2q5 -8 16 -23 l12 3v-16h-13l1 10q-26 -11 -28 -11q-23 0 -28 47q-8 76 -11 86q-15 46 -63 46q-76 0 -76 -134v-151q-1 19 -25 19h-3l-4 -6l5 -3h-2l-3 2l-6 -6q4 -4 9 -15l7 7q3 -4 9 -10q-14 -3 -14 -11l2 -8l6 7l-1 3q21 -15 21 -35v-104q-3 4 -9 10l-13 -14q-8 -2 -22 -10 q-11 1 -28 52q-3 -10 -3 -20q0 -11 4 -22q-5 3 -15 11l-6 -6q14 -14 18 -27q-4 -2 -10 -8q0 -5 12 -5q4 0 4.5 3.5t4.5 3.5q3 0 16 -15q-1 -17 10 -48l8 6q0 -16 -1 -24q2 5 7 14l7 -7q2 3 2 9v6l-6 6l-3 -3q2 19 3 38q4 23 18 32q1 -3 1 -49q0 -144 76 -144q73 0 73 83v115 h132q4 -14 4 -42zM175 565h-6l-4 8l6 2zM210 529l-8 -25l-5 2l8 23h5zM354 1271l-5 10l-4 -2l4 -8h5zM342 1227q0 3 -6.5 10.5t-7.5 10.5q3 2 7 4q-4 3 -9 6h-10l-4 -6l5 -3h-1l-3 2l-3 -2q2 -1 3 -1q0 -8 6 -15l4 4q2 -3 9 -9q-4 -1 -6 -2q3 -3 7 -5zM280 1259l-4 4l-8 -9 l3 -4zM324 1190v12q-3 8 -8 21q-7 4 -22 12l-5 -9q6 -11 12 -33l3 1q3 0 10 -2t10 -2zM280 1247h-6l-3 -16h6zM324 1182l-24 -9q18 -1 16 -1zM296 1187q-6 12 -20 27l-3 -35q17 9 23 8zM289 1155q0 9 -15 17q-8 -3 -16 -20q16 3 31 3zM415 887h-16q1 -4 4 -14q3 6 7 6l4 -1 q1 3 1 9zM184 1111q-5 2 -42 8v-17q7 -5 20 -14zM171 765l-3 4l-9 -8l3 -4zM172 753h-6l-4 -16h6zM133 684v10h-6v-10h6zM171 625v9h-6v-9h6z" />
</font>
</defs>
</svg>
