<?xml version="1.0" standalone="no"?>
<!DOCTYPE svg PUBLIC "-//W3C//DTD SVG 1.1//EN" "http://www.w3.org/Graphics/SVG/1.1/DTD/svg11.dtd" >
<svg xmlns="http://www.w3.org/2000/svg">
<metadata>
Created by FontPrep 20130207 at Thu Mar 13 16:01:39 2014
 By Raymond
Copyright (c) ShyFonts Type Foundry, 2000. All rights reserved.
</metadata>
<defs>
<font id="ba8eeb2750fed20bf262a7ef0e94209f" horiz-adv-x='1024' >
  <font-face 
    font-family="SFDigitalReadout-Light"
    font-weight="300"
    font-stretch="normal"
    units-per-em="2048"
    panose-1="0 0 4 9 0 0 0 0 0 0"
    ascent="1638"
    descent="-410"
    x-height="1015"
    cap-height="1058"
    bbox="58 -316 1154 1594"
    underline-thickness="20"
    underline-position="-123"
    unicode-range="U+0020-20AC"
  />
<missing-glyph horiz-adv-x="1024" 
 />
    <glyph glyph-name=".notdef" horiz-adv-x="1024" 
 />
    <glyph glyph-name=".null" horiz-adv-x="0" 
 />
    <glyph glyph-name="nonmarkingreturn" horiz-adv-x="682" 
 />
    <glyph glyph-name="space" unicode=" " 
 />
    <glyph glyph-name="exclam" unicode="!" 
d="M341 102h69v-44l-35 -34l-34 34v44zM341 273v82l17 34v150l17 17l18 -17v-150l17 -34v-82h-69zM341 1058h69v-218l-17 -34v-151l-18 -17l-17 17v151l-17 34v218z" />
    <glyph glyph-name="quotedbl" unicode="&#x22;" 
d="M316 1014l-34 34v89l34 34l34 -34v-89zM435 1014l-34 34v89l34 34l34 -34v-89z" />
    <glyph glyph-name="numbersign" unicode="#" 
d="M256 536l-34 34v89l34 34l34 -34v-89zM181 700h-89l-34 34l34 34h89l34 -34zM495 536l-34 34v89l34 34l34 -34v-89zM420 700h-89l-34 34l34 34h89l34 -34zM256 775l-34 34v89l34 34l34 -34v-89zM181 939h-89l-34 34l34 34h89l34 -34zM659 700h-89l-34 34l34 34h89l34 -34
zM495 775l-34 34v89l34 34l34 -34v-89zM420 939h-89l-34 34l34 34h89l34 -34zM256 1014l-34 34v89l34 34l34 -34v-89zM659 939h-89l-34 34l34 34h89l34 -34zM495 1014l-34 34v89l34 34l34 -34v-89z" />
    <glyph glyph-name="dollar" unicode="$" 
d="M341 -32h69v-45l-35 -34l-34 34v45zM573 17h-396l-34 34l34 34h396l35 -34zM341 137v218l17 34v150l17 17l18 -17v-150l17 -34v-218h-69zM309 563h-132l-34 34l34 34h132l34 -34zM649 92l-18 17v150l-17 35v228l35 34l34 -34v-396zM102 638l-34 34v396l34 35l17 -18v-150
l18 -34v-229zM573 563h-131l-34 34l34 34h131l35 -34zM341 1058h69v-218l-17 -34v-151l-18 -17l-17 17v151l-17 34v218zM573 1109h-396l-34 34l34 35h396l35 -35zM341 1229v44l34 34l35 -34v-44h-69z" />
    <glyph glyph-name="percent" unicode="%" 
d="M495 24l-27 27l27 28l27 -28zM427 92l-28 27l28 28l27 -28zM171 179v72l136 218v-71zM563 92l-27 27l27 28l28 -28zM495 160l-27 28l27 27l27 -27zM256 980l-27 27l27 27l27 -27zM188 1048l-28 27l28 28l27 -28zM444 725v72l136 218v-71zM324 1048l-27 27l27 28l28 -28z
M256 1116l-27 27l27 28l27 -28z" />
    <glyph glyph-name="ampersand" unicode="&#x26;" 
d="M573 17h-396l-34 34l34 34h396l35 -34zM119 259v-150l-17 -17l-34 34v396l34 34l35 -34v-228zM309 563h-132l-34 34l34 34h132l34 -34zM649 92l-18 17v150l-17 35v228l35 34l34 -34v-396zM102 638l-34 34v396l34 35l17 -18v-150l18 -34v-229zM573 1109h-396l-34 34l34 35
h396l35 -35z" />
    <glyph glyph-name="quotesingle" unicode="'" 
d="M375 1014l-34 34v89l34 34l35 -34v-89z" />
    <glyph glyph-name="parenleft" unicode="(" 
d="M309 17h-132l-34 34l34 34h132l34 -34zM119 259v-150l-17 -17l-34 34v396l34 34l35 -34v-228zM102 638l-34 34v396l34 35l17 -18v-150l18 -34v-229zM309 1109h-132l-34 34l34 35h132l34 -35z" />
    <glyph glyph-name="parenright" unicode=")" 
d="M573 17h-131l-34 34l34 34h131l35 -34zM649 92l-18 17v150l-17 35v228l35 34l34 -34v-396zM649 638l-35 34v229l17 34v150l18 18l34 -35v-396zM573 1109h-131l-34 34l34 35h131l35 -35z" />
    <glyph glyph-name="asterisk" unicode="*" 
d="M171 179v72l136 218v-71zM341 137v218l17 34v150l17 17l18 -17v-150l17 -34v-218h-69zM444 398v71l136 -218v-72zM309 563h-132l-34 34l34 34h132l34 -34zM573 563h-131l-34 34l34 34h131l35 -34zM171 944v71l136 -218v-72zM341 1058h69v-218l-17 -34v-151l-18 -17
l-17 17v151l-17 34v218zM444 725v72l136 218v-71z" />
    <glyph glyph-name="plus" unicode="+" 
d="M341 137v218l17 34v150l17 17l18 -17v-150l17 -34v-218h-69zM309 563h-132l-34 34l34 34h132l34 -34zM573 563h-131l-34 34l34 34h131l35 -34zM341 1058h69v-218l-17 -34v-151l-18 -17l-17 17v151l-17 34v218z" />
    <glyph glyph-name="comma" unicode="," 
d="M375 -77l-34 34v87l34 35l35 -35v-87z" />
    <glyph glyph-name="hyphen" unicode="-" 
d="M309 563h-132l-34 34l34 34h132l34 -34zM573 563h-131l-34 34l34 34h131l35 -34z" />
    <glyph glyph-name="period" unicode="." 
d="M375 24l-27 27l27 28l28 -28z" />
    <glyph glyph-name="slash" unicode="/" 
d="M171 179v72l136 218v-71zM444 725v72l136 218v-71z" />
    <glyph glyph-name="zero" unicode="0" 
d="M573 17h-396l-34 34l34 34h396l35 -34zM119 259v-150l-17 -17l-34 34v396l34 34l35 -34v-228zM649 92l-18 17v150l-17 35v228l35 34l34 -34v-396zM102 638l-34 34v396l34 35l17 -18v-150l18 -34v-229zM649 638l-35 34v229l17 34v150l18 18l34 -35v-396zM573 1109h-396
l-34 34l34 35h396l35 -35z" />
    <glyph glyph-name="one" unicode="1" 
d="M649 92l-18 17v150l-17 35v228l35 34l34 -34v-396zM649 638l-35 34v229l17 34v150l18 18l34 -35v-396z" />
    <glyph glyph-name="two" unicode="2" 
d="M573 17h-396l-34 34l34 34h396l35 -34zM119 259v-150l-17 -17l-34 34v396l34 34l35 -34v-228zM309 563h-132l-34 34l34 34h132l34 -34zM573 563h-131l-34 34l34 34h131l35 -34zM649 638l-35 34v229l17 34v150l18 18l34 -35v-396zM573 1109h-396l-34 34l34 35h396l35 -35z
" />
    <glyph glyph-name="three" unicode="3" 
d="M573 17h-396l-34 34l34 34h396l35 -34zM309 563h-132l-34 34l34 34h132l34 -34zM649 92l-18 17v150l-17 35v228l35 34l34 -34v-396zM573 563h-131l-34 34l34 34h131l35 -34zM649 638l-35 34v229l17 34v150l18 18l34 -35v-396zM573 1109h-396l-34 34l34 35h396l35 -35z
" />
    <glyph glyph-name="four" unicode="4" 
d="M309 563h-132l-34 34l34 34h132l34 -34zM649 92l-18 17v150l-17 35v228l35 34l34 -34v-396zM102 638l-34 34v396l34 35l17 -18v-150l18 -34v-229zM573 563h-131l-34 34l34 34h131l35 -34zM649 638l-35 34v229l17 34v150l18 18l34 -35v-396z" />
    <glyph glyph-name="five" unicode="5" 
d="M573 17h-396l-34 34l34 34h396l35 -34zM309 563h-132l-34 34l34 34h132l34 -34zM649 92l-18 17v150l-17 35v228l35 34l34 -34v-396zM102 638l-34 34v396l34 35l17 -18v-150l18 -34v-229zM573 563h-131l-34 34l34 34h131l35 -34zM573 1109h-396l-34 34l34 35h396l35 -35z
" />
    <glyph glyph-name="six" unicode="6" 
d="M573 17h-396l-34 34l34 34h396l35 -34zM119 259v-150l-17 -17l-34 34v396l34 34l35 -34v-228zM309 563h-132l-34 34l34 34h132l34 -34zM649 92l-18 17v150l-17 35v228l35 34l34 -34v-396zM102 638l-34 34v396l34 35l17 -18v-150l18 -34v-229zM573 563h-131l-34 34l34 34
h131l35 -34zM573 1109h-396l-34 34l34 35h396l35 -35z" />
    <glyph glyph-name="seven" unicode="7" 
d="M649 92l-18 17v150l-17 35v228l35 34l34 -34v-396zM649 638l-35 34v229l17 34v150l18 18l34 -35v-396zM573 1109h-396l-34 34l34 35h396l35 -35z" />
    <glyph glyph-name="eight" unicode="8" 
d="M573 17h-396l-34 34l34 34h396l35 -34zM119 259v-150l-17 -17l-34 34v396l34 34l35 -34v-228zM309 563h-132l-34 34l34 34h132l34 -34zM649 92l-18 17v150l-17 35v228l35 34l34 -34v-396zM102 638l-34 34v396l34 35l17 -18v-150l18 -34v-229zM573 563h-131l-34 34l34 34
h131l35 -34zM649 638l-35 34v229l17 34v150l18 18l34 -35v-396zM573 1109h-396l-34 34l34 35h396l35 -35z" />
    <glyph glyph-name="nine" unicode="9" 
d="M573 17h-396l-34 34l34 34h396l35 -34zM309 563h-132l-34 34l34 34h132l34 -34zM649 92l-18 17v150l-17 35v228l35 34l34 -34v-396zM102 638l-34 34v396l34 35l17 -18v-150l18 -34v-229zM573 563h-131l-34 34l34 34h131l35 -34zM649 638l-35 34v229l17 34v150l18 18
l34 -35v-396zM573 1109h-396l-34 34l34 35h396l35 -35z" />
    <glyph glyph-name="colon" unicode=":" 
d="M375 24l-27 27l27 28l28 -28zM375 502l-27 27l27 27l28 -27z" />
    <glyph glyph-name="semicolon" unicode=";" 
d="M375 -77l-34 34v87l34 35l35 -35v-87zM375 502l-27 27l27 27l28 -27z" />
    <glyph glyph-name="less" unicode="&#x3c;" 
d="M307 398v71l137 -218v-72zM307 725v72l137 218v-71z" />
    <glyph glyph-name="equal" unicode="=" 
d="M309 469h-132l-34 34l34 35h132l34 -35zM309 657h-132l-34 34l34 34h132l34 -34zM573 469h-131l-34 34l34 35h131l35 -35zM573 657h-131l-34 34l34 34h131l35 -34z" />
    <glyph glyph-name="greater" unicode="&#x3e;" 
d="M307 179v72l137 218v-71zM307 944v71l137 -218v-72z" />
    <glyph glyph-name="question" unicode="?" 
d="M341 102h69v-44l-35 -34l-34 34v44zM341 273v82l17 34v150l17 17l18 -17v-150l17 -34v-82h-69zM573 563h-131l-34 34l34 34h131l35 -34zM649 638l-35 34v229l17 34v150l18 18l34 -35v-396zM573 1109h-396l-34 34l34 35h396l35 -35z" />
    <glyph glyph-name="at" unicode="@" 
d="M573 17h-396l-34 34l34 34h396l35 -34zM119 259v-150l-17 -17l-34 34v396l34 34l35 -34v-228zM102 638l-34 34v396l34 35l17 -18v-150l18 -34v-229zM573 563h-131l-34 34l34 34h131l35 -34zM341 1058h69v-218l-17 -34v-151l-18 -17l-17 17v151l-17 34v218zM649 638
l-35 34v229l17 34v150l18 18l34 -35v-396zM573 1109h-396l-34 34l34 35h396l35 -35z" />
    <glyph glyph-name="A" unicode="A" 
d="M119 259v-150l-17 -17l-34 34v396l34 34l35 -34v-228zM309 563h-132l-34 34l34 34h132l34 -34zM649 92l-18 17v150l-17 35v228l35 34l34 -34v-396zM102 638l-34 34v396l34 35l17 -18v-150l18 -34v-229zM573 563h-131l-34 34l34 34h131l35 -34zM649 638l-35 34v229l17 34
v150l18 18l34 -35v-396zM573 1109h-396l-34 34l34 35h396l35 -35z" />
    <glyph glyph-name="B" unicode="B" 
d="M573 17h-396l-34 34l34 34h396l35 -34zM341 137v218l17 34v150l17 17l18 -17v-150l17 -34v-218h-69zM649 92l-18 17v150l-17 35v228l35 34l34 -34v-396zM573 563h-131l-34 34l34 34h131l35 -34zM341 1058h69v-218l-17 -34v-151l-18 -17l-17 17v151l-17 34v218zM649 638
l-35 34v229l17 34v150l18 18l34 -35v-396zM573 1109h-396l-34 34l34 35h396l35 -35z" />
    <glyph glyph-name="C" unicode="C" 
d="M573 17h-396l-34 34l34 34h396l35 -34zM119 259v-150l-17 -17l-34 34v396l34 34l35 -34v-228zM102 638l-34 34v396l34 35l17 -18v-150l18 -34v-229zM573 1109h-396l-34 34l34 35h396l35 -35z" />
    <glyph glyph-name="D" unicode="D" 
d="M573 17h-396l-34 34l34 34h396l35 -34zM341 137v218l17 34v150l17 17l18 -17v-150l17 -34v-218h-69zM649 92l-18 17v150l-17 35v228l35 34l34 -34v-396zM341 1058h69v-218l-17 -34v-151l-18 -17l-17 17v151l-17 34v218zM649 638l-35 34v229l17 34v150l18 18l34 -35v-396z
M573 1109h-396l-34 34l34 35h396l35 -35z" />
    <glyph glyph-name="E" unicode="E" 
d="M573 17h-396l-34 34l34 34h396l35 -34zM119 259v-150l-17 -17l-34 34v396l34 34l35 -34v-228zM309 563h-132l-34 34l34 34h132l34 -34zM102 638l-34 34v396l34 35l17 -18v-150l18 -34v-229zM573 563h-131l-34 34l34 34h131l35 -34zM573 1109h-396l-34 34l34 35h396
l35 -35z" />
    <glyph glyph-name="F" unicode="F" 
d="M119 259v-150l-17 -17l-34 34v396l34 34l35 -34v-228zM309 563h-132l-34 34l34 34h132l34 -34zM102 638l-34 34v396l34 35l17 -18v-150l18 -34v-229zM573 563h-131l-34 34l34 34h131l35 -34zM573 1109h-396l-34 34l34 35h396l35 -35z" />
    <glyph glyph-name="G" unicode="G" 
d="M573 17h-396l-34 34l34 34h396l35 -34zM119 259v-150l-17 -17l-34 34v396l34 34l35 -34v-228zM649 92l-18 17v150l-17 35v228l35 34l34 -34v-396zM102 638l-34 34v396l34 35l17 -18v-150l18 -34v-229zM573 563h-131l-34 34l34 34h131l35 -34zM573 1109h-396l-34 34l34 35
h396l35 -35z" />
    <glyph glyph-name="H" unicode="H" 
d="M119 259v-150l-17 -17l-34 34v396l34 34l35 -34v-228zM309 563h-132l-34 34l34 34h132l34 -34zM649 92l-18 17v150l-17 35v228l35 34l34 -34v-396zM102 638l-34 34v396l34 35l17 -18v-150l18 -34v-229zM573 563h-131l-34 34l34 34h131l35 -34zM649 638l-35 34v229l17 34
v150l18 18l34 -35v-396z" />
    <glyph glyph-name="I" unicode="I" 
d="M341 137v218l17 34v150l17 17l18 -17v-150l17 -34v-218h-69zM341 1058h69v-218l-17 -34v-151l-18 -17l-17 17v151l-17 34v218z" />
    <glyph glyph-name="J" unicode="J" 
d="M573 17h-396l-34 34l34 34h396l35 -34zM119 259v-150l-17 -17l-34 34v396l34 34l35 -34v-228zM649 92l-18 17v150l-17 35v228l35 34l34 -34v-396zM649 638l-35 34v229l17 34v150l18 18l34 -35v-396z" />
    <glyph glyph-name="K" unicode="K" 
d="M119 259v-150l-17 -17l-34 34v396l34 34l35 -34v-228zM444 398v71l136 -218v-72zM309 563h-132l-34 34l34 34h132l34 -34zM102 638l-34 34v396l34 35l17 -18v-150l18 -34v-229zM444 725v72l136 218v-71z" />
    <glyph glyph-name="L" unicode="L" 
d="M573 17h-396l-34 34l34 34h396l35 -34zM119 259v-150l-17 -17l-34 34v396l34 34l35 -34v-228zM102 638l-34 34v396l34 35l17 -18v-150l18 -34v-229z" />
    <glyph glyph-name="M" unicode="M" 
d="M119 259v-150l-17 -17l-34 34v396l34 34l35 -34v-228zM341 137v218l17 34v150l17 17l18 -17v-150l17 -34v-218h-69zM649 92l-18 17v150l-17 35v228l35 34l34 -34v-396zM102 638l-34 34v396l34 35l17 -18v-150l18 -34v-229zM171 944v71l136 -218v-72zM444 725v72l136 218
v-71zM649 638l-35 34v229l17 34v150l18 18l34 -35v-396z" />
    <glyph glyph-name="N" unicode="N" 
d="M119 259v-150l-17 -17l-34 34v396l34 34l35 -34v-228zM649 92l-18 17v150l-17 35v228l35 34l34 -34v-396zM102 638l-34 34v396l34 35l17 -18v-150l18 -34v-229zM649 638l-35 34v229l17 34v150l18 18l34 -35v-396zM573 1109h-396l-34 34l34 35h396l35 -35z" />
    <glyph glyph-name="O" unicode="O" 
d="M573 17h-396l-34 34l34 34h396l35 -34zM119 259v-150l-17 -17l-34 34v396l34 34l35 -34v-228zM649 92l-18 17v150l-17 35v228l35 34l34 -34v-396zM102 638l-34 34v396l34 35l17 -18v-150l18 -34v-229zM649 638l-35 34v229l17 34v150l18 18l34 -35v-396zM573 1109h-396
l-34 34l34 35h396l35 -35z" />
    <glyph glyph-name="P" unicode="P" 
d="M119 259v-150l-17 -17l-34 34v396l34 34l35 -34v-228zM309 563h-132l-34 34l34 34h132l34 -34zM102 638l-34 34v396l34 35l17 -18v-150l18 -34v-229zM573 563h-131l-34 34l34 34h131l35 -34zM649 638l-35 34v229l17 34v150l18 18l34 -35v-396zM573 1109h-396l-34 34
l34 35h396l35 -35z" />
    <glyph glyph-name="Q" unicode="Q" 
d="M573 17h-396l-34 34l34 34h396l35 -34zM119 259v-150l-17 -17l-34 34v396l34 34l35 -34v-228zM444 398v71l136 -218v-72zM649 92l-18 17v150l-17 35v228l35 34l34 -34v-396zM102 638l-34 34v396l34 35l17 -18v-150l18 -34v-229zM649 638l-35 34v229l17 34v150l18 18
l34 -35v-396zM573 1109h-396l-34 34l34 35h396l35 -35z" />
    <glyph glyph-name="R" unicode="R" 
d="M119 259v-150l-17 -17l-34 34v396l34 34l35 -34v-228zM444 398v71l136 -218v-72zM309 563h-132l-34 34l34 34h132l34 -34zM102 638l-34 34v396l34 35l17 -18v-150l18 -34v-229zM573 563h-131l-34 34l34 34h131l35 -34zM649 638l-35 34v229l17 34v150l18 18l34 -35v-396z
M573 1109h-396l-34 34l34 35h396l35 -35z" />
    <glyph glyph-name="S" unicode="S" 
d="M573 17h-396l-34 34l34 34h396l35 -34zM309 563h-132l-34 34l34 34h132l34 -34zM649 92l-18 17v150l-17 35v228l35 34l34 -34v-396zM102 638l-34 34v396l34 35l17 -18v-150l18 -34v-229zM573 563h-131l-34 34l34 34h131l35 -34zM573 1109h-396l-34 34l34 35h396l35 -35z
" />
    <glyph glyph-name="T" unicode="T" 
d="M341 137v218l17 34v150l17 17l18 -17v-150l17 -34v-218h-69zM341 1058h69v-218l-17 -34v-151l-18 -17l-17 17v151l-17 34v218zM573 1109h-396l-34 34l34 35h396l35 -35z" />
    <glyph glyph-name="U" unicode="U" 
d="M573 17h-396l-34 34l34 34h396l35 -34zM119 259v-150l-17 -17l-34 34v396l34 34l35 -34v-228zM649 92l-18 17v150l-17 35v228l35 34l34 -34v-396zM102 638l-34 34v396l34 35l17 -18v-150l18 -34v-229zM649 638l-35 34v229l17 34v150l18 18l34 -35v-396z" />
    <glyph glyph-name="V" unicode="V" 
d="M444 398v71l136 -218v-72zM649 92l-18 17v150l-17 35v228l35 34l34 -34v-396zM171 944v71l136 -218v-72zM649 638l-35 34v229l17 34v150l18 18l34 -35v-396z" />
    <glyph glyph-name="W" unicode="W" 
d="M119 259v-150l-17 -17l-34 34v396l34 34l35 -34v-228zM171 179v72l136 218v-71zM444 398v71l136 -218v-72zM649 92l-18 17v150l-17 35v228l35 34l34 -34v-396zM102 638l-34 34v396l34 35l17 -18v-150l18 -34v-229zM341 1058h69v-218l-17 -34v-151l-18 -17l-17 17v151
l-17 34v218zM649 638l-35 34v229l17 34v150l18 18l34 -35v-396z" />
    <glyph glyph-name="X" unicode="X" 
d="M171 179v72l136 218v-71zM444 398v71l136 -218v-72zM171 944v71l136 -218v-72zM444 725v72l136 218v-71z" />
    <glyph glyph-name="Y" unicode="Y" 
d="M341 137v218l17 34v150l17 17l18 -17v-150l17 -34v-218h-69zM309 563h-132l-34 34l34 34h132l34 -34zM102 638l-34 34v396l34 35l17 -18v-150l18 -34v-229zM573 563h-131l-34 34l34 34h131l35 -34zM649 638l-35 34v229l17 34v150l18 18l34 -35v-396z" />
    <glyph glyph-name="Z" unicode="Z" 
d="M573 17h-396l-34 34l34 34h396l35 -34zM171 179v72l136 218v-71zM444 725v72l136 218v-71zM573 1109h-396l-34 34l34 35h396l35 -35z" />
    <glyph glyph-name="bracketleft" unicode="[" 
d="M309 17h-132l-34 34l34 34h132l34 -34zM119 259v-150l-17 -17l-34 34v396l34 34l35 -34v-228zM102 638l-34 34v396l34 35l17 -18v-150l18 -34v-229zM309 1109h-132l-34 34l34 35h132l34 -35z" />
    <glyph glyph-name="backslash" unicode="\" 
d="M444 398v71l136 -218v-72zM171 944v71l136 -218v-72z" />
    <glyph glyph-name="bracketright" unicode="]" 
d="M573 17h-131l-34 34l34 34h131l35 -34zM649 92l-18 17v150l-17 35v228l35 34l34 -34v-396zM649 638l-35 34v229l17 34v150l18 18l34 -35v-396zM573 1109h-131l-34 34l34 35h131l35 -35z" />
    <glyph glyph-name="asciicircum" unicode="^" 
d="M375 1085l-153 -184v82l153 184l154 -184v-82z" />
    <glyph glyph-name="underscore" unicode="_" 
d="M573 17h-396l-34 34l34 34h396l35 -34z" />
    <glyph glyph-name="grave" unicode="`" 
d="M307 1492v82l137 -164v-82z" />
    <glyph glyph-name="a" unicode="a" 
d="M119 259v-150l-17 -17l-34 34v396l34 34l35 -34v-228zM309 563h-132l-34 34l34 34h132l34 -34zM649 92l-18 17v150l-17 35v228l35 34l34 -34v-396zM102 638l-34 34v396l34 35l17 -18v-150l18 -34v-229zM573 563h-131l-34 34l34 34h131l35 -34zM649 638l-35 34v229l17 34
v150l18 18l34 -35v-396zM573 1109h-396l-34 34l34 35h396l35 -35z" />
    <glyph glyph-name="b" unicode="b" 
d="M573 17h-396l-34 34l34 34h396l35 -34zM341 137v218l17 34v150l17 17l18 -17v-150l17 -34v-218h-69zM649 92l-18 17v150l-17 35v228l35 34l34 -34v-396zM573 563h-131l-34 34l34 34h131l35 -34zM341 1058h69v-218l-17 -34v-151l-18 -17l-17 17v151l-17 34v218zM649 638
l-35 34v229l17 34v150l18 18l34 -35v-396zM573 1109h-396l-34 34l34 35h396l35 -35z" />
    <glyph glyph-name="c" unicode="c" 
d="M573 17h-396l-34 34l34 34h396l35 -34zM119 259v-150l-17 -17l-34 34v396l34 34l35 -34v-228zM102 638l-34 34v396l34 35l17 -18v-150l18 -34v-229zM573 1109h-396l-34 34l34 35h396l35 -35z" />
    <glyph glyph-name="d" unicode="d" 
d="M573 17h-396l-34 34l34 34h396l35 -34zM341 137v218l17 34v150l17 17l18 -17v-150l17 -34v-218h-69zM649 92l-18 17v150l-17 35v228l35 34l34 -34v-396zM341 1058h69v-218l-17 -34v-151l-18 -17l-17 17v151l-17 34v218zM649 638l-35 34v229l17 34v150l18 18l34 -35v-396z
M573 1109h-396l-34 34l34 35h396l35 -35z" />
    <glyph glyph-name="e" unicode="e" 
d="M573 17h-396l-34 34l34 34h396l35 -34zM119 259v-150l-17 -17l-34 34v396l34 34l35 -34v-228zM309 563h-132l-34 34l34 34h132l34 -34zM102 638l-34 34v396l34 35l17 -18v-150l18 -34v-229zM573 563h-131l-34 34l34 34h131l35 -34zM573 1109h-396l-34 34l34 35h396
l35 -35z" />
    <glyph glyph-name="f" unicode="f" 
d="M119 259v-150l-17 -17l-34 34v396l34 34l35 -34v-228zM309 563h-132l-34 34l34 34h132l34 -34zM102 638l-34 34v396l34 35l17 -18v-150l18 -34v-229zM573 563h-131l-34 34l34 34h131l35 -34zM573 1109h-396l-34 34l34 35h396l35 -35z" />
    <glyph glyph-name="g" unicode="g" 
d="M573 17h-396l-34 34l34 34h396l35 -34zM119 259v-150l-17 -17l-34 34v396l34 34l35 -34v-228zM649 92l-18 17v150l-17 35v228l35 34l34 -34v-396zM102 638l-34 34v396l34 35l17 -18v-150l18 -34v-229zM573 563h-131l-34 34l34 34h131l35 -34zM573 1109h-396l-34 34l34 35
h396l35 -35z" />
    <glyph glyph-name="h" unicode="h" 
d="M119 259v-150l-17 -17l-34 34v396l34 34l35 -34v-228zM309 563h-132l-34 34l34 34h132l34 -34zM649 92l-18 17v150l-17 35v228l35 34l34 -34v-396zM102 638l-34 34v396l34 35l17 -18v-150l18 -34v-229zM573 563h-131l-34 34l34 34h131l35 -34zM649 638l-35 34v229l17 34
v150l18 18l34 -35v-396z" />
    <glyph glyph-name="i" unicode="i" 
d="M341 137v218l17 34v150l17 17l18 -17v-150l17 -34v-218h-69zM341 1058h69v-218l-17 -34v-151l-18 -17l-17 17v151l-17 34v218z" />
    <glyph glyph-name="j" unicode="j" 
d="M573 17h-396l-34 34l34 34h396l35 -34zM119 259v-150l-17 -17l-34 34v396l34 34l35 -34v-228zM649 92l-18 17v150l-17 35v228l35 34l34 -34v-396zM649 638l-35 34v229l17 34v150l18 18l34 -35v-396z" />
    <glyph glyph-name="k" unicode="k" 
d="M119 259v-150l-17 -17l-34 34v396l34 34l35 -34v-228zM444 398v71l136 -218v-72zM309 563h-132l-34 34l34 34h132l34 -34zM102 638l-34 34v396l34 35l17 -18v-150l18 -34v-229zM444 725v72l136 218v-71z" />
    <glyph glyph-name="l" unicode="l" 
d="M573 17h-396l-34 34l34 34h396l35 -34zM119 259v-150l-17 -17l-34 34v396l34 34l35 -34v-228zM102 638l-34 34v396l34 35l17 -18v-150l18 -34v-229z" />
    <glyph glyph-name="m" unicode="m" 
d="M119 259v-150l-17 -17l-34 34v396l34 34l35 -34v-228zM341 137v218l17 34v150l17 17l18 -17v-150l17 -34v-218h-69zM649 92l-18 17v150l-17 35v228l35 34l34 -34v-396zM102 638l-34 34v396l34 35l17 -18v-150l18 -34v-229zM171 944v71l136 -218v-72zM444 725v72l136 218
v-71zM649 638l-35 34v229l17 34v150l18 18l34 -35v-396z" />
    <glyph glyph-name="n" unicode="n" 
d="M119 259v-150l-17 -17l-34 34v396l34 34l35 -34v-228zM649 92l-18 17v150l-17 35v228l35 34l34 -34v-396zM102 638l-34 34v396l34 35l17 -18v-150l18 -34v-229zM649 638l-35 34v229l17 34v150l18 18l34 -35v-396zM573 1109h-396l-34 34l34 35h396l35 -35z" />
    <glyph glyph-name="o" unicode="o" 
d="M573 17h-396l-34 34l34 34h396l35 -34zM119 259v-150l-17 -17l-34 34v396l34 34l35 -34v-228zM649 92l-18 17v150l-17 35v228l35 34l34 -34v-396zM102 638l-34 34v396l34 35l17 -18v-150l18 -34v-229zM649 638l-35 34v229l17 34v150l18 18l34 -35v-396zM573 1109h-396
l-34 34l34 35h396l35 -35z" />
    <glyph glyph-name="p" unicode="p" 
d="M119 259v-150l-17 -17l-34 34v396l34 34l35 -34v-228zM309 563h-132l-34 34l34 34h132l34 -34zM102 638l-34 34v396l34 35l17 -18v-150l18 -34v-229zM573 563h-131l-34 34l34 34h131l35 -34zM649 638l-35 34v229l17 34v150l18 18l34 -35v-396zM573 1109h-396l-34 34
l34 35h396l35 -35z" />
    <glyph glyph-name="q" unicode="q" 
d="M573 17h-396l-34 34l34 34h396l35 -34zM119 259v-150l-17 -17l-34 34v396l34 34l35 -34v-228zM444 398v71l136 -218v-72zM649 92l-18 17v150l-17 35v228l35 34l34 -34v-396zM102 638l-34 34v396l34 35l17 -18v-150l18 -34v-229zM649 638l-35 34v229l17 34v150l18 18
l34 -35v-396zM573 1109h-396l-34 34l34 35h396l35 -35z" />
    <glyph glyph-name="r" unicode="r" 
d="M119 259v-150l-17 -17l-34 34v396l34 34l35 -34v-228zM444 398v71l136 -218v-72zM309 563h-132l-34 34l34 34h132l34 -34zM102 638l-34 34v396l34 35l17 -18v-150l18 -34v-229zM573 563h-131l-34 34l34 34h131l35 -34zM649 638l-35 34v229l17 34v150l18 18l34 -35v-396z
M573 1109h-396l-34 34l34 35h396l35 -35z" />
    <glyph glyph-name="s" unicode="s" 
d="M573 17h-396l-34 34l34 34h396l35 -34zM309 563h-132l-34 34l34 34h132l34 -34zM649 92l-18 17v150l-17 35v228l35 34l34 -34v-396zM102 638l-34 34v396l34 35l17 -18v-150l18 -34v-229zM573 563h-131l-34 34l34 34h131l35 -34zM573 1109h-396l-34 34l34 35h396l35 -35z
" />
    <glyph glyph-name="t" unicode="t" 
d="M341 137v218l17 34v150l17 17l18 -17v-150l17 -34v-218h-69zM341 1058h69v-218l-17 -34v-151l-18 -17l-17 17v151l-17 34v218zM573 1109h-396l-34 34l34 35h396l35 -35z" />
    <glyph glyph-name="u" unicode="u" 
d="M573 17h-396l-34 34l34 34h396l35 -34zM119 259v-150l-17 -17l-34 34v396l34 34l35 -34v-228zM649 92l-18 17v150l-17 35v228l35 34l34 -34v-396zM102 638l-34 34v396l34 35l17 -18v-150l18 -34v-229zM649 638l-35 34v229l17 34v150l18 18l34 -35v-396z" />
    <glyph glyph-name="v" unicode="v" 
d="M444 398v71l136 -218v-72zM649 92l-18 17v150l-17 35v228l35 34l34 -34v-396zM171 944v71l136 -218v-72zM649 638l-35 34v229l17 34v150l18 18l34 -35v-396z" />
    <glyph glyph-name="w" unicode="w" 
d="M119 259v-150l-17 -17l-34 34v396l34 34l35 -34v-228zM171 179v72l136 218v-71zM444 398v71l136 -218v-72zM649 92l-18 17v150l-17 35v228l35 34l34 -34v-396zM102 638l-34 34v396l34 35l17 -18v-150l18 -34v-229zM341 1058h69v-218l-17 -34v-151l-18 -17l-17 17v151
l-17 34v218zM649 638l-35 34v229l17 34v150l18 18l34 -35v-396z" />
    <glyph glyph-name="x" unicode="x" 
d="M171 179v72l136 218v-71zM444 398v71l136 -218v-72zM171 944v71l136 -218v-72zM444 725v72l136 218v-71z" />
    <glyph glyph-name="y" unicode="y" 
d="M341 137v218l17 34v150l17 17l18 -17v-150l17 -34v-218h-69zM309 563h-132l-34 34l34 34h132l34 -34zM102 638l-34 34v396l34 35l17 -18v-150l18 -34v-229zM573 563h-131l-34 34l34 34h131l35 -34zM649 638l-35 34v229l17 34v150l18 18l34 -35v-396z" />
    <glyph glyph-name="z" unicode="z" 
d="M573 17h-396l-34 34l34 34h396l35 -34zM171 179v72l136 218v-71zM444 725v72l136 218v-71zM573 1109h-396l-34 34l34 35h396l35 -35z" />
    <glyph glyph-name="braceleft" unicode="{" 
d="M309 17h-132l-34 34l34 34h132l34 -34zM119 259v-150l-17 -17l-34 34v396l34 34l35 -34v-228zM102 638l-34 34v396l34 35l17 -18v-150l18 -34v-229zM309 1109h-132l-34 34l34 35h132l34 -35z" />
    <glyph glyph-name="bar" unicode="|" horiz-adv-x="205" 
d="M68 137v218l17 34v150l17 17l17 -17v-150l18 -34v-218h-69zM68 1058h69v-218l-18 -34v-151l-17 -17l-17 17v151l-17 34v218z" />
    <glyph glyph-name="braceright" unicode="}" 
d="M573 17h-131l-34 34l34 34h131l35 -34zM649 92l-18 17v150l-17 35v228l35 34l34 -34v-396zM649 638l-35 34v229l17 34v150l18 18l34 -35v-396zM573 1109h-131l-34 34l34 35h131l35 -35z" />
    <glyph glyph-name="asciitilde" unicode="~" 
d="M273 1048l-27 27l27 28l27 -28zM410 1048l-28 27l28 28l27 -28zM341 1116l-27 27l27 28l28 -28zM478 1116l-27 27l27 28l27 -28z" />
    <glyph glyph-name="quotesinglbase" 
d="M375 -77l-34 34v87l34 35l35 -35v-87z" />
    <glyph glyph-name="quotesinglbase" unicode="&#x201a;" 
d="M375 -77l-34 34v87l34 35l35 -35v-87z" />
    <glyph glyph-name="quotedblbase" 
d="M316 -77l-34 34v87l34 35l34 -35v-87zM435 -77l-34 34v87l34 35l34 -35v-87z" />
    <glyph glyph-name="quotedblbase" unicode="&#x201e;" 
d="M316 -77l-34 34v87l34 35l34 -35v-87zM435 -77l-34 34v87l34 35l34 -35v-87z" />
    <glyph glyph-name="ellipsis" unicode="&#x85;" 
d="M205 24l-28 27l28 28l27 -28zM375 24l-27 27l27 28l28 -28zM546 24l-27 27l27 28l27 -28z" />
    <glyph glyph-name="ellipsis" unicode="&#x2026;" 
d="M205 24l-28 27l28 28l27 -28zM375 24l-27 27l27 28l28 -28zM546 24l-27 27l27 28l27 -28z" />
    <glyph glyph-name="circumflex" 
d="M375 1512l-153 -184v82l153 184l154 -184v-82z" />
    <glyph glyph-name="circumflex" unicode="&#x2c6;" 
d="M375 1512l-153 -184v82l153 184l154 -184v-82z" />
    <glyph glyph-name="perthousand" 
d="M324 24l-27 27l27 28l28 -28zM256 92l-27 27l27 28l27 -28zM393 92l-28 27l28 28l27 -28zM324 160l-27 28l27 27l28 -27zM171 179v72l136 218v-71zM597 24l-27 27l27 28l28 -28zM529 92l-27 27l27 28l27 -28zM666 92l-28 27l28 28l27 -28zM597 160l-27 28l27 27l28 -27z
M256 980l-27 27l27 27l27 -27zM188 1048l-28 27l28 28l27 -28zM444 725v72l136 218v-71zM324 1048l-27 27l27 28l28 -28zM256 1116l-27 27l27 28l27 -28z" />
    <glyph glyph-name="perthousand" unicode="&#x2030;" 
d="M324 24l-27 27l27 28l28 -28zM256 92l-27 27l27 28l27 -28zM393 92l-28 27l28 28l27 -28zM324 160l-27 28l27 27l28 -27zM171 179v72l136 218v-71zM597 24l-27 27l27 28l28 -28zM529 92l-27 27l27 28l27 -28zM666 92l-28 27l28 28l27 -28zM597 160l-27 28l27 27l28 -27z
M256 980l-27 27l27 27l27 -27zM188 1048l-28 27l28 28l27 -28zM444 725v72l136 218v-71zM324 1048l-27 27l27 28l28 -28zM256 1116l-27 27l27 28l27 -28z" />
    <glyph glyph-name="Scaron" 
d="M375 1307l-153 185v82l153 -185l154 185v-82zM573 17h-396l-34 34l34 34h396l35 -34zM309 563h-132l-34 34l34 34h132l34 -34zM649 92l-18 17v150l-17 35v228l35 34l34 -34v-396zM102 638l-34 34v396l34 35l17 -18v-150l18 -34v-229zM573 563h-131l-34 34l34 34h131
l35 -34zM573 1109h-396l-34 34l34 35h396l35 -35z" />
    <glyph glyph-name="Scaron" unicode="&#x160;" 
d="M375 1307l-153 185v82l153 -185l154 185v-82zM573 17h-396l-34 34l34 34h396l35 -34zM309 563h-132l-34 34l34 34h132l34 -34zM649 92l-18 17v150l-17 35v228l35 34l34 -34v-396zM102 638l-34 34v396l34 35l17 -18v-150l18 -34v-229zM573 563h-131l-34 34l34 34h131
l35 -34zM573 1109h-396l-34 34l34 35h396l35 -35z" />
    <glyph glyph-name="guilsinglleft" 
d="M307 398v71l137 -218v-72zM307 725v72l137 218v-71z" />
    <glyph glyph-name="guilsinglleft" unicode="&#x2039;" 
d="M307 398v71l137 -218v-72zM307 725v72l137 218v-71z" />
    <glyph glyph-name="OE" horiz-adv-x="1229" 
d="M573 17h-396l-34 34l34 34h396l35 -34zM119 259v-150l-17 -17l-34 34v396l34 34l35 -34v-228zM1120 17h-396l-35 34l35 34h396l34 -34zM649 92l-18 17v150l-17 35v228l35 34l34 -34v-396zM102 638l-34 34v396l34 35l17 -18v-150l18 -34v-229zM855 563h-131l-35 34l35 34
h131l34 -34zM649 638l-35 34v229l17 34v150l18 18l34 -35v-396zM573 1109h-396l-34 34l34 35h396l35 -35zM1120 563h-132l-34 34l34 34h132l34 -34zM1120 1109h-396l-35 34l35 35h396l34 -35z" />
    <glyph glyph-name="OE" unicode="&#x152;" horiz-adv-x="1229" 
d="M573 17h-396l-34 34l34 34h396l35 -34zM119 259v-150l-17 -17l-34 34v396l34 34l35 -34v-228zM1120 17h-396l-35 34l35 34h396l34 -34zM649 92l-18 17v150l-17 35v228l35 34l34 -34v-396zM102 638l-34 34v396l34 35l17 -18v-150l18 -34v-229zM855 563h-131l-35 34l35 34
h131l34 -34zM649 638l-35 34v229l17 34v150l18 18l34 -35v-396zM573 1109h-396l-34 34l34 35h396l35 -35zM1120 563h-132l-34 34l34 34h132l34 -34zM1120 1109h-396l-35 34l35 35h396l34 -35z" />
    <glyph glyph-name="quoteleft" 
d="M375 1014l-34 34v89l34 34l35 -34v-89z" />
    <glyph glyph-name="quoteleft" unicode="&#x2018;" 
d="M375 1014l-34 34v89l34 34l35 -34v-89z" />
    <glyph glyph-name="quoteright" 
d="M375 1014l-34 34v89l34 34l35 -34v-89z" />
    <glyph glyph-name="quoteright" unicode="&#x2019;" 
d="M375 1014l-34 34v89l34 34l35 -34v-89z" />
    <glyph glyph-name="quotedblleft" 
d="M316 1014l-34 34v89l34 34l34 -34v-89zM435 1014l-34 34v89l34 34l34 -34v-89z" />
    <glyph glyph-name="quotedblleft" unicode="&#x201c;" 
d="M316 1014l-34 34v89l34 34l34 -34v-89zM435 1014l-34 34v89l34 34l34 -34v-89z" />
    <glyph glyph-name="quotedblright" 
d="M316 1014l-34 34v89l34 34l34 -34v-89zM435 1014l-34 34v89l34 34l34 -34v-89z" />
    <glyph glyph-name="quotedblright" unicode="&#x201d;" 
d="M316 1014l-34 34v89l34 34l34 -34v-89zM435 1014l-34 34v89l34 34l34 -34v-89z" />
    <glyph glyph-name="endash" 
d="M309 563h-132l-34 34l34 34h132l34 -34z" />
    <glyph glyph-name="endash" unicode="&#x2013;" 
d="M309 563h-132l-34 34l34 34h132l34 -34z" />
    <glyph glyph-name="emdash" 
d="M309 563h-132l-34 34l34 34h132l34 -34zM573 563h-131l-34 34l34 34h131l35 -34z" />
    <glyph glyph-name="emdash" unicode="&#x2014;" 
d="M309 563h-132l-34 34l34 34h132l34 -34zM573 563h-131l-34 34l34 34h131l35 -34z" />
    <glyph glyph-name="tilde" 
d="M273 1304l-27 27l27 28l27 -28zM410 1304l-28 27l28 28l27 -28zM341 1372l-27 27l27 28l28 -28zM478 1372l-27 27l27 28l27 -28z" />
    <glyph glyph-name="tilde" unicode="&#x2dc;" 
d="M273 1304l-27 27l27 28l27 -28zM410 1304l-28 27l28 28l27 -28zM341 1372l-27 27l27 28l28 -28zM478 1372l-27 27l27 28l27 -28z" />
    <glyph glyph-name="scaron" 
d="M375 1307l-153 185v82l153 -185l154 185v-82zM573 17h-396l-34 34l34 34h396l35 -34zM309 563h-132l-34 34l34 34h132l34 -34zM649 92l-18 17v150l-17 35v228l35 34l34 -34v-396zM102 638l-34 34v396l34 35l17 -18v-150l18 -34v-229zM573 563h-131l-34 34l34 34h131
l35 -34zM573 1109h-396l-34 34l34 35h396l35 -35z" />
    <glyph glyph-name="scaron" unicode="&#x161;" 
d="M375 1307l-153 185v82l153 -185l154 185v-82zM573 17h-396l-34 34l34 34h396l35 -34zM309 563h-132l-34 34l34 34h132l34 -34zM649 92l-18 17v150l-17 35v228l35 34l34 -34v-396zM102 638l-34 34v396l34 35l17 -18v-150l18 -34v-229zM573 563h-131l-34 34l34 34h131
l35 -34zM573 1109h-396l-34 34l34 35h396l35 -35z" />
    <glyph glyph-name="guilsinglright" 
d="M307 179v72l137 218v-71zM307 944v71l137 -218v-72z" />
    <glyph glyph-name="guilsinglright" unicode="&#x203a;" 
d="M307 179v72l137 218v-71zM307 944v71l137 -218v-72z" />
    <glyph glyph-name="oe" horiz-adv-x="1229" 
d="M573 17h-396l-34 34l34 34h396l35 -34zM119 259v-150l-17 -17l-34 34v396l34 34l35 -34v-228zM1120 17h-396l-35 34l35 34h396l34 -34zM649 92l-18 17v150l-17 35v228l35 34l34 -34v-396zM102 638l-34 34v396l34 35l17 -18v-150l18 -34v-229zM855 563h-131l-35 34l35 34
h131l34 -34zM649 638l-35 34v229l17 34v150l18 18l34 -35v-396zM573 1109h-396l-34 34l34 35h396l35 -35zM1120 563h-132l-34 34l34 34h132l34 -34zM1120 1109h-396l-35 34l35 35h396l34 -35z" />
    <glyph glyph-name="oe" unicode="&#x153;" horiz-adv-x="1229" 
d="M573 17h-396l-34 34l34 34h396l35 -34zM119 259v-150l-17 -17l-34 34v396l34 34l35 -34v-228zM1120 17h-396l-35 34l35 34h396l34 -34zM649 92l-18 17v150l-17 35v228l35 34l34 -34v-396zM102 638l-34 34v396l34 35l17 -18v-150l18 -34v-229zM855 563h-131l-35 34l35 34
h131l34 -34zM649 638l-35 34v229l17 34v150l18 18l34 -35v-396zM573 1109h-396l-34 34l34 35h396l35 -35zM1120 563h-132l-34 34l34 34h132l34 -34zM1120 1109h-396l-35 34l35 35h396l34 -35z" />
    <glyph glyph-name="Ydieresis" 
d="M256 1304l-27 27l27 28l27 -28zM495 1304l-27 27l27 28l27 -28zM341 137v218l17 34v150l17 17l18 -17v-150l17 -34v-218h-69zM309 563h-132l-34 34l34 34h132l34 -34zM102 638l-34 34v396l34 35l17 -18v-150l18 -34v-229zM573 563h-131l-34 34l34 34h131l35 -34zM649 638
l-35 34v229l17 34v150l18 18l34 -35v-396z" />
    <glyph glyph-name="Ydieresis" unicode="&#x178;" 
d="M256 1304l-27 27l27 28l27 -28zM495 1304l-27 27l27 28l27 -28zM341 137v218l17 34v150l17 17l18 -17v-150l17 -34v-218h-69zM309 563h-132l-34 34l34 34h132l34 -34zM102 638l-34 34v396l34 35l17 -18v-150l18 -34v-229zM573 563h-131l-34 34l34 34h131l35 -34zM649 638
l-35 34v229l17 34v150l18 18l34 -35v-396z" />
    <glyph glyph-name="nonbreakingspace" unicode="&#xa0;" 
 />
    <glyph glyph-name="exclamdown" unicode="&#xa1;" 
d="M341 137v218l17 34v150l17 17l18 -17v-150l17 -34v-218h-69zM341 922h69v-82l-17 -34v-151l-18 -17l-17 17v151l-17 34v82zM341 1092v45l34 34l35 -34v-45h-69z" />
    <glyph glyph-name="cent" unicode="&#xa2;" 
d="M309 563h-132l-34 34l34 34h132l34 -34zM375 433l-34 35v54l34 34l35 -34v-54zM102 638l-34 34v396l34 35l17 -18v-150l18 -34v-229zM573 563h-131l-34 34l34 34h131l35 -34zM341 1058h69v-218l-17 -34v-151l-18 -17l-17 17v151l-17 34v218zM573 1109h-396l-34 34l34 35
h396l35 -35zM341 1229v44l34 34l35 -34v-44h-69z" />
    <glyph glyph-name="sterling" unicode="&#xa3;" 
d="M573 17h-396l-34 34l34 34h396l35 -34zM119 259v-150l-17 -17l-34 34v396l34 34l35 -34v-228zM309 563h-132l-34 34l34 34h132l34 -34zM102 638l-34 34v396l34 35l17 -18v-150l18 -34v-229zM573 1109h-396l-34 34l34 35h396l35 -35zM649 809l-35 34v58l17 34v150l18 18
l34 -35v-225z" />
    <glyph glyph-name="yen" unicode="&#xa5;" 
d="M341 137v218l17 34v150l17 17l18 -17v-150l17 -34v-218h-69zM309 563h-132l-34 34l34 34h132l34 -34zM102 638l-34 34v396l34 35l17 -18v-150l18 -34v-229zM573 563h-131l-34 34l34 34h131l35 -34zM649 638l-35 34v229l17 34v150l18 18l34 -35v-396z" />
    <glyph glyph-name="brokenbar" unicode="&#xa6;" horiz-adv-x="205" 
d="M68 137v218l17 34v150l17 17l17 -17v-150l18 -34v-218h-69zM68 1058h69v-218l-18 -34v-151l-17 -17l-17 17v151l-17 34v218z" />
    <glyph glyph-name="dieresis" unicode="&#xa8;" 
d="M256 1304l-27 27l27 28l27 -28zM495 1304l-27 27l27 28l27 -28z" />
    <glyph glyph-name="copyright" unicode="&#xa9;" 
d="M573 17h-396l-34 34l34 34h396l35 -34zM119 259v-150l-17 -17l-34 34v396l34 34l35 -34v-228zM102 638l-34 34v396l34 35l17 -18v-150l18 -34v-229zM573 1109h-396l-34 34l34 35h396l35 -35z" />
    <glyph glyph-name="guillemotleft" unicode="&#xab;" 
d="M137 398v71l136 -218v-72zM478 398v71l136 -218v-72zM137 725v72l136 218v-71zM478 725v72l136 218v-71z" />
    <glyph glyph-name="minus" unicode="&#xad;" 
d="M309 563h-132l-34 34l34 34h132l34 -34zM573 563h-131l-34 34l34 34h131l35 -34z" />
    <glyph glyph-name="registered" unicode="&#xae;" 
d="M119 259v-150l-17 -17l-34 34v396l34 34l35 -34v-228zM444 398v71l136 -218v-72zM309 563h-132l-34 34l34 34h132l34 -34zM102 638l-34 34v396l34 35l17 -18v-150l18 -34v-229zM573 563h-131l-34 34l34 34h131l35 -34zM649 638l-35 34v229l17 34v150l18 18l34 -35v-396z
M573 1109h-396l-34 34l34 35h396l35 -35z" />
    <glyph glyph-name="degree" unicode="&#xb0;" 
d="M375 980l-27 27l27 27l28 -27zM307 1048l-27 27l27 28l28 -28zM444 1048l-28 27l28 28l27 -28zM375 1116l-27 27l27 28l28 -28z" />
    <glyph glyph-name="plusminus" unicode="&#xb1;" 
d="M573 17h-396l-34 34l34 34h396l35 -34zM341 137v218l17 34v150l17 17l18 -17v-150l17 -34v-218h-69zM309 563h-132l-34 34l34 34h132l34 -34zM573 563h-131l-34 34l34 34h131l35 -34zM341 1058h69v-218l-17 -34v-151l-18 -17l-17 17v151l-17 34v218z" />
    <glyph glyph-name="acute" unicode="&#xb4;" 
d="M307 1328v82l137 164v-82z" />
    <glyph glyph-name="guillemotright" unicode="&#xbb;" 
d="M137 179v72l136 218v-71zM478 179v72l136 218v-71zM137 944v71l136 -218v-72zM478 944v71l136 -218v-72z" />
    <glyph glyph-name="questiondown" unicode="&#xbf;" 
d="M642 17h-396l-34 34l34 34h396l34 -34zM188 259v-150l-17 -17l-34 34v396l34 34l34 -34v-228zM377 563h-131l-34 34l34 34h131l34 -34zM410 922h68v-82l-17 -34v-151l-17 -17l-17 17v151l-17 34v82zM410 1092v45l34 34l34 -34v-45h-68z" />
    <glyph glyph-name="Agrave" unicode="&#xc0;" 
d="M307 1492v82l137 -164v-82zM119 259v-150l-17 -17l-34 34v396l34 34l35 -34v-228zM309 563h-132l-34 34l34 34h132l34 -34zM649 92l-18 17v150l-17 35v228l35 34l34 -34v-396zM102 638l-34 34v396l34 35l17 -18v-150l18 -34v-229zM573 563h-131l-34 34l34 34h131l35 -34z
M649 638l-35 34v229l17 34v150l18 18l34 -35v-396zM573 1109h-396l-34 34l34 35h396l35 -35z" />
    <glyph glyph-name="Aacute" unicode="&#xc1;" 
d="M307 1328v82l137 164v-82zM119 259v-150l-17 -17l-34 34v396l34 34l35 -34v-228zM309 563h-132l-34 34l34 34h132l34 -34zM649 92l-18 17v150l-17 35v228l35 34l34 -34v-396zM102 638l-34 34v396l34 35l17 -18v-150l18 -34v-229zM573 563h-131l-34 34l34 34h131l35 -34z
M649 638l-35 34v229l17 34v150l18 18l34 -35v-396zM573 1109h-396l-34 34l34 35h396l35 -35z" />
    <glyph glyph-name="Acircumflex" unicode="&#xc2;" 
d="M375 1512l-153 -184v82l153 184l154 -184v-82zM119 259v-150l-17 -17l-34 34v396l34 34l35 -34v-228zM309 563h-132l-34 34l34 34h132l34 -34zM649 92l-18 17v150l-17 35v228l35 34l34 -34v-396zM102 638l-34 34v396l34 35l17 -18v-150l18 -34v-229zM573 563h-131l-34 34
l34 34h131l35 -34zM649 638l-35 34v229l17 34v150l18 18l34 -35v-396zM573 1109h-396l-34 34l34 35h396l35 -35z" />
    <glyph glyph-name="Atilde" unicode="&#xc3;" 
d="M273 1304l-27 27l27 28l27 -28zM410 1304l-28 27l28 28l27 -28zM341 1372l-27 27l27 28l28 -28zM478 1372l-27 27l27 28l27 -28zM119 259v-150l-17 -17l-34 34v396l34 34l35 -34v-228zM309 563h-132l-34 34l34 34h132l34 -34zM649 92l-18 17v150l-17 35v228l35 34l34 -34
v-396zM102 638l-34 34v396l34 35l17 -18v-150l18 -34v-229zM573 563h-131l-34 34l34 34h131l35 -34zM649 638l-35 34v229l17 34v150l18 18l34 -35v-396zM573 1109h-396l-34 34l34 35h396l35 -35z" />
    <glyph glyph-name="Adieresis" unicode="&#xc4;" 
d="M256 1304l-27 27l27 28l27 -28zM495 1304l-27 27l27 28l27 -28zM119 259v-150l-17 -17l-34 34v396l34 34l35 -34v-228zM309 563h-132l-34 34l34 34h132l34 -34zM649 92l-18 17v150l-17 35v228l35 34l34 -34v-396zM102 638l-34 34v396l34 35l17 -18v-150l18 -34v-229z
M573 563h-131l-34 34l34 34h131l35 -34zM649 638l-35 34v229l17 34v150l18 18l34 -35v-396zM573 1109h-396l-34 34l34 35h396l35 -35z" />
    <glyph glyph-name="Aring" unicode="&#xc5;" 
d="M375 1321l-27 27l27 28l28 -28zM307 1389l-27 28l27 27l28 -27zM444 1389l-28 28l28 27l27 -27zM375 1457l-27 28l27 27l28 -27zM119 259v-150l-17 -17l-34 34v396l34 34l35 -34v-228zM309 563h-132l-34 34l34 34h132l34 -34zM649 92l-18 17v150l-17 35v228l35 34l34 -34
v-396zM102 638l-34 34v396l34 35l17 -18v-150l18 -34v-229zM573 563h-131l-34 34l34 34h131l35 -34zM649 638l-35 34v229l17 34v150l18 18l34 -35v-396zM573 1109h-396l-34 34l34 35h396l35 -35z" />
    <glyph glyph-name="AE" unicode="&#xc6;" horiz-adv-x="1229" 
d="M119 259v-150l-17 -17l-34 34v396l34 34l35 -34v-228zM309 563h-132l-34 34l34 34h132l34 -34zM1120 17h-396l-35 34l35 34h396l34 -34zM649 92l-18 17v150l-17 35v228l35 34l34 -34v-396zM102 638l-34 34v396l34 35l17 -18v-150l18 -34v-229zM573 563h-131l-34 34l34 34
h131l35 -34zM855 563h-131l-35 34l35 34h131l34 -34zM649 638l-35 34v229l17 34v150l18 18l34 -35v-396zM573 1109h-396l-34 34l34 35h396l35 -35zM1120 563h-132l-34 34l34 34h132l34 -34zM1120 1109h-396l-35 34l35 35h396l34 -35z" />
    <glyph glyph-name="Egrave" unicode="&#xc8;" 
d="M307 1492v82l137 -164v-82zM573 17h-396l-34 34l34 34h396l35 -34zM119 259v-150l-17 -17l-34 34v396l34 34l35 -34v-228zM309 563h-132l-34 34l34 34h132l34 -34zM102 638l-34 34v396l34 35l17 -18v-150l18 -34v-229zM573 563h-131l-34 34l34 34h131l35 -34zM573 1109
h-396l-34 34l34 35h396l35 -35z" />
    <glyph glyph-name="Eacute" unicode="&#xc9;" 
d="M307 1328v82l137 164v-82zM573 17h-396l-34 34l34 34h396l35 -34zM119 259v-150l-17 -17l-34 34v396l34 34l35 -34v-228zM309 563h-132l-34 34l34 34h132l34 -34zM102 638l-34 34v396l34 35l17 -18v-150l18 -34v-229zM573 563h-131l-34 34l34 34h131l35 -34zM573 1109
h-396l-34 34l34 35h396l35 -35z" />
    <glyph glyph-name="Ecircumflex" unicode="&#xca;" 
d="M375 1512l-153 -184v82l153 184l154 -184v-82zM573 17h-396l-34 34l34 34h396l35 -34zM119 259v-150l-17 -17l-34 34v396l34 34l35 -34v-228zM309 563h-132l-34 34l34 34h132l34 -34zM102 638l-34 34v396l34 35l17 -18v-150l18 -34v-229zM573 563h-131l-34 34l34 34h131
l35 -34zM573 1109h-396l-34 34l34 35h396l35 -35z" />
    <glyph glyph-name="Edieresis" unicode="&#xcb;" 
d="M256 1304l-27 27l27 28l27 -28zM495 1304l-27 27l27 28l27 -28zM573 17h-396l-34 34l34 34h396l35 -34zM119 259v-150l-17 -17l-34 34v396l34 34l35 -34v-228zM309 563h-132l-34 34l34 34h132l34 -34zM102 638l-34 34v396l34 35l17 -18v-150l18 -34v-229zM573 563h-131
l-34 34l34 34h131l35 -34zM573 1109h-396l-34 34l34 35h396l35 -35z" />
    <glyph glyph-name="Igrave" unicode="&#xcc;" 
d="M307 1492v82l137 -164v-82zM341 137v218l17 34v150l17 17l18 -17v-150l17 -34v-218h-69zM341 1058h69v-218l-17 -34v-151l-18 -17l-17 17v151l-17 34v218z" />
    <glyph glyph-name="Iacute" unicode="&#xcd;" 
d="M307 1328v82l137 164v-82zM341 137v218l17 34v150l17 17l18 -17v-150l17 -34v-218h-69zM341 1058h69v-218l-17 -34v-151l-18 -17l-17 17v151l-17 34v218z" />
    <glyph glyph-name="Icircumflex" unicode="&#xce;" 
d="M375 1512l-153 -184v82l153 184l154 -184v-82zM341 137v218l17 34v150l17 17l18 -17v-150l17 -34v-218h-69zM341 1058h69v-218l-17 -34v-151l-18 -17l-17 17v151l-17 34v218z" />
    <glyph glyph-name="Idieresis" unicode="&#xcf;" 
d="M256 1304l-27 27l27 28l27 -28zM495 1304l-27 27l27 28l27 -28zM341 137v218l17 34v150l17 17l18 -17v-150l17 -34v-218h-69zM341 1058h69v-218l-17 -34v-151l-18 -17l-17 17v151l-17 34v218z" />
    <glyph glyph-name="Ntilde" unicode="&#xd1;" 
d="M273 1304l-27 27l27 28l27 -28zM410 1304l-28 27l28 28l27 -28zM341 1372l-27 27l27 28l28 -28zM478 1372l-27 27l27 28l27 -28zM119 259v-150l-17 -17l-34 34v396l34 34l35 -34v-228zM649 92l-18 17v150l-17 35v228l35 34l34 -34v-396zM102 638l-34 34v396l34 35l17 -18
v-150l18 -34v-229zM649 638l-35 34v229l17 34v150l18 18l34 -35v-396zM573 1109h-396l-34 34l34 35h396l35 -35z" />
    <glyph glyph-name="Ograve" unicode="&#xd2;" 
d="M307 1492v82l137 -164v-82zM573 17h-396l-34 34l34 34h396l35 -34zM119 259v-150l-17 -17l-34 34v396l34 34l35 -34v-228zM649 92l-18 17v150l-17 35v228l35 34l34 -34v-396zM102 638l-34 34v396l34 35l17 -18v-150l18 -34v-229zM649 638l-35 34v229l17 34v150l18 18
l34 -35v-396zM573 1109h-396l-34 34l34 35h396l35 -35z" />
    <glyph glyph-name="Oacute" unicode="&#xd3;" 
d="M307 1328v82l137 164v-82zM573 17h-396l-34 34l34 34h396l35 -34zM119 259v-150l-17 -17l-34 34v396l34 34l35 -34v-228zM649 92l-18 17v150l-17 35v228l35 34l34 -34v-396zM102 638l-34 34v396l34 35l17 -18v-150l18 -34v-229zM649 638l-35 34v229l17 34v150l18 18
l34 -35v-396zM573 1109h-396l-34 34l34 35h396l35 -35z" />
    <glyph glyph-name="Ocircumflex" unicode="&#xd4;" 
d="M375 1512l-153 -184v82l153 184l154 -184v-82zM573 17h-396l-34 34l34 34h396l35 -34zM119 259v-150l-17 -17l-34 34v396l34 34l35 -34v-228zM649 92l-18 17v150l-17 35v228l35 34l34 -34v-396zM102 638l-34 34v396l34 35l17 -18v-150l18 -34v-229zM649 638l-35 34v229
l17 34v150l18 18l34 -35v-396zM573 1109h-396l-34 34l34 35h396l35 -35z" />
    <glyph glyph-name="Otilde" unicode="&#xd5;" 
d="M273 1304l-27 27l27 28l27 -28zM410 1304l-28 27l28 28l27 -28zM341 1372l-27 27l27 28l28 -28zM478 1372l-27 27l27 28l27 -28zM573 17h-396l-34 34l34 34h396l35 -34zM119 259v-150l-17 -17l-34 34v396l34 34l35 -34v-228zM649 92l-18 17v150l-17 35v228l35 34l34 -34
v-396zM102 638l-34 34v396l34 35l17 -18v-150l18 -34v-229zM649 638l-35 34v229l17 34v150l18 18l34 -35v-396zM573 1109h-396l-34 34l34 35h396l35 -35z" />
    <glyph glyph-name="Odieresis" unicode="&#xd6;" 
d="M256 1304l-27 27l27 28l27 -28zM495 1304l-27 27l27 28l27 -28zM573 17h-396l-34 34l34 34h396l35 -34zM119 259v-150l-17 -17l-34 34v396l34 34l35 -34v-228zM649 92l-18 17v150l-17 35v228l35 34l34 -34v-396zM102 638l-34 34v396l34 35l17 -18v-150l18 -34v-229z
M649 638l-35 34v229l17 34v150l18 18l34 -35v-396zM573 1109h-396l-34 34l34 35h396l35 -35z" />
    <glyph glyph-name="multiply" unicode="&#xd7;" 
d="M171 179v72l136 218v-71zM444 398v71l136 -218v-72zM171 944v71l136 -218v-72zM444 725v72l136 218v-71z" />
    <glyph glyph-name="Oslash" unicode="&#xd8;" 
d="M573 17h-396l-34 34l34 34h396l35 -34zM119 259v-150l-17 -17l-34 34v396l34 34l35 -34v-228zM171 179v72l136 218v-71zM649 92l-18 17v150l-17 35v228l35 34l34 -34v-396zM102 638l-34 34v396l34 35l17 -18v-150l18 -34v-229zM444 725v72l136 218v-71zM649 638l-35 34
v229l17 34v150l18 18l34 -35v-396zM573 1109h-396l-34 34l34 35h396l35 -35z" />
    <glyph glyph-name="Ugrave" unicode="&#xd9;" 
d="M307 1492v82l137 -164v-82zM573 17h-396l-34 34l34 34h396l35 -34zM119 259v-150l-17 -17l-34 34v396l34 34l35 -34v-228zM649 92l-18 17v150l-17 35v228l35 34l34 -34v-396zM102 638l-34 34v396l34 35l17 -18v-150l18 -34v-229zM649 638l-35 34v229l17 34v150l18 18
l34 -35v-396z" />
    <glyph glyph-name="Uacute" unicode="&#xda;" 
d="M307 1328v82l137 164v-82zM573 17h-396l-34 34l34 34h396l35 -34zM119 259v-150l-17 -17l-34 34v396l34 34l35 -34v-228zM649 92l-18 17v150l-17 35v228l35 34l34 -34v-396zM102 638l-34 34v396l34 35l17 -18v-150l18 -34v-229zM649 638l-35 34v229l17 34v150l18 18
l34 -35v-396z" />
    <glyph glyph-name="Ucircumflex" unicode="&#xdb;" 
d="M375 1512l-153 -184v82l153 184l154 -184v-82zM573 17h-396l-34 34l34 34h396l35 -34zM119 259v-150l-17 -17l-34 34v396l34 34l35 -34v-228zM649 92l-18 17v150l-17 35v228l35 34l34 -34v-396zM102 638l-34 34v396l34 35l17 -18v-150l18 -34v-229zM649 638l-35 34v229
l17 34v150l18 18l34 -35v-396z" />
    <glyph glyph-name="Udieresis" unicode="&#xdc;" 
d="M256 1304l-27 27l27 28l27 -28zM495 1304l-27 27l27 28l27 -28zM573 17h-396l-34 34l34 34h396l35 -34zM119 259v-150l-17 -17l-34 34v396l34 34l35 -34v-228zM649 92l-18 17v150l-17 35v228l35 34l34 -34v-396zM102 638l-34 34v396l34 35l17 -18v-150l18 -34v-229z
M649 638l-35 34v229l17 34v150l18 18l34 -35v-396z" />
    <glyph glyph-name="Yacute" unicode="&#xdd;" 
d="M307 1328v82l137 164v-82zM341 137v218l17 34v150l17 17l18 -17v-150l17 -34v-218h-69zM309 563h-132l-34 34l34 34h132l34 -34zM102 638l-34 34v396l34 35l17 -18v-150l18 -34v-229zM573 563h-131l-34 34l34 34h131l35 -34zM649 638l-35 34v229l17 34v150l18 18l34 -35
v-396z" />
    <glyph glyph-name="Thorn" unicode="&#xde;" 
d="M102 -316l-34 34v260l34 32l35 -32v-260zM573 17h-396l-34 34l34 34h396l35 -34zM119 259v-150l-17 -17l-34 34v396l34 34l35 -34v-228zM309 563h-132l-34 34l34 34h132l34 -34zM649 92l-18 17v150l-17 35v228l35 34l34 -34v-396zM102 638l-34 34v396l34 35l17 -18v-150
l18 -34v-229zM573 563h-131l-34 34l34 34h131l35 -34z" />
    <glyph glyph-name="germandbls" unicode="&#xdf;" 
d="M102 -316l-34 34v260l34 32l35 -32v-260zM119 259v-150l-17 -17l-34 34v396l34 34l35 -34v-228zM573 17h-131l-34 34l34 34h131l35 -34zM649 92l-18 17v150l-17 35v228l35 34l34 -34v-396zM102 638l-34 34v396l34 35l17 -18v-150l18 -34v-229zM573 563h-131l-34 34l34 34
h131l35 -34zM649 638l-35 34v229l17 34v150l18 18l34 -35v-396zM573 1109h-396l-34 34l34 35h396l35 -35z" />
    <glyph glyph-name="agrave" unicode="&#xe0;" 
d="M307 1492v82l137 -164v-82zM119 259v-150l-17 -17l-34 34v396l34 34l35 -34v-228zM309 563h-132l-34 34l34 34h132l34 -34zM649 92l-18 17v150l-17 35v228l35 34l34 -34v-396zM102 638l-34 34v396l34 35l17 -18v-150l18 -34v-229zM573 563h-131l-34 34l34 34h131l35 -34z
M649 638l-35 34v229l17 34v150l18 18l34 -35v-396zM573 1109h-396l-34 34l34 35h396l35 -35z" />
    <glyph glyph-name="aacute" unicode="&#xe1;" 
d="M307 1328v82l137 164v-82zM119 259v-150l-17 -17l-34 34v396l34 34l35 -34v-228zM309 563h-132l-34 34l34 34h132l34 -34zM649 92l-18 17v150l-17 35v228l35 34l34 -34v-396zM102 638l-34 34v396l34 35l17 -18v-150l18 -34v-229zM573 563h-131l-34 34l34 34h131l35 -34z
M649 638l-35 34v229l17 34v150l18 18l34 -35v-396zM573 1109h-396l-34 34l34 35h396l35 -35z" />
    <glyph glyph-name="acircumflex" unicode="&#xe2;" 
d="M375 1512l-153 -184v82l153 184l154 -184v-82zM119 259v-150l-17 -17l-34 34v396l34 34l35 -34v-228zM309 563h-132l-34 34l34 34h132l34 -34zM649 92l-18 17v150l-17 35v228l35 34l34 -34v-396zM102 638l-34 34v396l34 35l17 -18v-150l18 -34v-229zM573 563h-131l-34 34
l34 34h131l35 -34zM649 638l-35 34v229l17 34v150l18 18l34 -35v-396zM573 1109h-396l-34 34l34 35h396l35 -35z" />
    <glyph glyph-name="atilde" unicode="&#xe3;" 
d="M273 1304l-27 27l27 28l27 -28zM410 1304l-28 27l28 28l27 -28zM341 1372l-27 27l27 28l28 -28zM478 1372l-27 27l27 28l27 -28zM119 259v-150l-17 -17l-34 34v396l34 34l35 -34v-228zM309 563h-132l-34 34l34 34h132l34 -34zM649 92l-18 17v150l-17 35v228l35 34l34 -34
v-396zM102 638l-34 34v396l34 35l17 -18v-150l18 -34v-229zM573 563h-131l-34 34l34 34h131l35 -34zM649 638l-35 34v229l17 34v150l18 18l34 -35v-396zM573 1109h-396l-34 34l34 35h396l35 -35z" />
    <glyph glyph-name="adieresis" unicode="&#xe4;" 
d="M256 1304l-27 27l27 28l27 -28zM495 1304l-27 27l27 28l27 -28zM119 259v-150l-17 -17l-34 34v396l34 34l35 -34v-228zM309 563h-132l-34 34l34 34h132l34 -34zM649 92l-18 17v150l-17 35v228l35 34l34 -34v-396zM102 638l-34 34v396l34 35l17 -18v-150l18 -34v-229z
M573 563h-131l-34 34l34 34h131l35 -34zM649 638l-35 34v229l17 34v150l18 18l34 -35v-396zM573 1109h-396l-34 34l34 35h396l35 -35z" />
    <glyph glyph-name="aring" unicode="&#xe5;" 
d="M375 1321l-27 27l27 28l28 -28zM307 1389l-27 28l27 27l28 -27zM444 1389l-28 28l28 27l27 -27zM375 1457l-27 28l27 27l28 -27zM119 259v-150l-17 -17l-34 34v396l34 34l35 -34v-228zM309 563h-132l-34 34l34 34h132l34 -34zM649 92l-18 17v150l-17 35v228l35 34l34 -34
v-396zM102 638l-34 34v396l34 35l17 -18v-150l18 -34v-229zM573 563h-131l-34 34l34 34h131l35 -34zM649 638l-35 34v229l17 34v150l18 18l34 -35v-396zM573 1109h-396l-34 34l34 35h396l35 -35z" />
    <glyph glyph-name="ae" unicode="&#xe6;" horiz-adv-x="1229" 
d="M119 259v-150l-17 -17l-34 34v396l34 34l35 -34v-228zM309 563h-132l-34 34l34 34h132l34 -34zM1120 17h-396l-35 34l35 34h396l34 -34zM649 92l-18 17v150l-17 35v228l35 34l34 -34v-396zM102 638l-34 34v396l34 35l17 -18v-150l18 -34v-229zM573 563h-131l-34 34l34 34
h131l35 -34zM855 563h-131l-35 34l35 34h131l34 -34zM649 638l-35 34v229l17 34v150l18 18l34 -35v-396zM573 1109h-396l-34 34l34 35h396l35 -35zM1120 563h-132l-34 34l34 34h132l34 -34zM1120 1109h-396l-35 34l35 35h396l34 -35z" />
    <glyph glyph-name="egrave" unicode="&#xe8;" 
d="M307 1492v82l137 -164v-82zM573 17h-396l-34 34l34 34h396l35 -34zM119 259v-150l-17 -17l-34 34v396l34 34l35 -34v-228zM309 563h-132l-34 34l34 34h132l34 -34zM102 638l-34 34v396l34 35l17 -18v-150l18 -34v-229zM573 563h-131l-34 34l34 34h131l35 -34zM573 1109
h-396l-34 34l34 35h396l35 -35z" />
    <glyph glyph-name="eacute" unicode="&#xe9;" 
d="M307 1328v82l137 164v-82zM573 17h-396l-34 34l34 34h396l35 -34zM119 259v-150l-17 -17l-34 34v396l34 34l35 -34v-228zM309 563h-132l-34 34l34 34h132l34 -34zM102 638l-34 34v396l34 35l17 -18v-150l18 -34v-229zM573 563h-131l-34 34l34 34h131l35 -34zM573 1109
h-396l-34 34l34 35h396l35 -35z" />
    <glyph glyph-name="ecircumflex" unicode="&#xea;" 
d="M375 1512l-153 -184v82l153 184l154 -184v-82zM573 17h-396l-34 34l34 34h396l35 -34zM119 259v-150l-17 -17l-34 34v396l34 34l35 -34v-228zM309 563h-132l-34 34l34 34h132l34 -34zM102 638l-34 34v396l34 35l17 -18v-150l18 -34v-229zM573 563h-131l-34 34l34 34h131
l35 -34zM573 1109h-396l-34 34l34 35h396l35 -35z" />
    <glyph glyph-name="edieresis" unicode="&#xeb;" 
d="M256 1304l-27 27l27 28l27 -28zM495 1304l-27 27l27 28l27 -28zM573 17h-396l-34 34l34 34h396l35 -34zM119 259v-150l-17 -17l-34 34v396l34 34l35 -34v-228zM309 563h-132l-34 34l34 34h132l34 -34zM102 638l-34 34v396l34 35l17 -18v-150l18 -34v-229zM573 563h-131
l-34 34l34 34h131l35 -34zM573 1109h-396l-34 34l34 35h396l35 -35z" />
    <glyph glyph-name="igrave" unicode="&#xec;" 
d="M307 1492v82l137 -164v-82zM341 137v218l17 34v150l17 17l18 -17v-150l17 -34v-218h-69zM341 1058h69v-218l-17 -34v-151l-18 -17l-17 17v151l-17 34v218z" />
    <glyph glyph-name="iacute" unicode="&#xed;" 
d="M307 1328v82l137 164v-82zM341 137v218l17 34v150l17 17l18 -17v-150l17 -34v-218h-69zM341 1058h69v-218l-17 -34v-151l-18 -17l-17 17v151l-17 34v218z" />
    <glyph glyph-name="icircumflex" unicode="&#xee;" 
d="M375 1512l-153 -184v82l153 184l154 -184v-82zM341 137v218l17 34v150l17 17l18 -17v-150l17 -34v-218h-69zM341 1058h69v-218l-17 -34v-151l-18 -17l-17 17v151l-17 34v218z" />
    <glyph glyph-name="idieresis" unicode="&#xef;" 
d="M256 1304l-27 27l27 28l27 -28zM495 1304l-27 27l27 28l27 -28zM341 137v218l17 34v150l17 17l18 -17v-150l17 -34v-218h-69zM341 1058h69v-218l-17 -34v-151l-18 -17l-17 17v151l-17 34v218z" />
    <glyph glyph-name="ntilde" unicode="&#xf1;" 
d="M273 1304l-27 27l27 28l27 -28zM410 1304l-28 27l28 28l27 -28zM341 1372l-27 27l27 28l28 -28zM478 1372l-27 27l27 28l27 -28zM119 259v-150l-17 -17l-34 34v396l34 34l35 -34v-228zM649 92l-18 17v150l-17 35v228l35 34l34 -34v-396zM102 638l-34 34v396l34 35l17 -18
v-150l18 -34v-229zM649 638l-35 34v229l17 34v150l18 18l34 -35v-396zM573 1109h-396l-34 34l34 35h396l35 -35z" />
    <glyph glyph-name="ograve" unicode="&#xf2;" 
d="M307 1492v82l137 -164v-82zM573 17h-396l-34 34l34 34h396l35 -34zM119 259v-150l-17 -17l-34 34v396l34 34l35 -34v-228zM649 92l-18 17v150l-17 35v228l35 34l34 -34v-396zM102 638l-34 34v396l34 35l17 -18v-150l18 -34v-229zM649 638l-35 34v229l17 34v150l18 18
l34 -35v-396zM573 1109h-396l-34 34l34 35h396l35 -35z" />
    <glyph glyph-name="oacute" unicode="&#xf3;" 
d="M307 1328v82l137 164v-82zM573 17h-396l-34 34l34 34h396l35 -34zM119 259v-150l-17 -17l-34 34v396l34 34l35 -34v-228zM649 92l-18 17v150l-17 35v228l35 34l34 -34v-396zM102 638l-34 34v396l34 35l17 -18v-150l18 -34v-229zM649 638l-35 34v229l17 34v150l18 18
l34 -35v-396zM573 1109h-396l-34 34l34 35h396l35 -35z" />
    <glyph glyph-name="ocircumflex" unicode="&#xf4;" 
d="M375 1512l-153 -184v82l153 184l154 -184v-82zM573 17h-396l-34 34l34 34h396l35 -34zM119 259v-150l-17 -17l-34 34v396l34 34l35 -34v-228zM649 92l-18 17v150l-17 35v228l35 34l34 -34v-396zM102 638l-34 34v396l34 35l17 -18v-150l18 -34v-229zM649 638l-35 34v229
l17 34v150l18 18l34 -35v-396zM573 1109h-396l-34 34l34 35h396l35 -35z" />
    <glyph glyph-name="otilde" unicode="&#xf5;" 
d="M273 1304l-27 27l27 28l27 -28zM410 1304l-28 27l28 28l27 -28zM341 1372l-27 27l27 28l28 -28zM478 1372l-27 27l27 28l27 -28zM573 17h-396l-34 34l34 34h396l35 -34zM119 259v-150l-17 -17l-34 34v396l34 34l35 -34v-228zM649 92l-18 17v150l-17 35v228l35 34l34 -34
v-396zM102 638l-34 34v396l34 35l17 -18v-150l18 -34v-229zM649 638l-35 34v229l17 34v150l18 18l34 -35v-396zM573 1109h-396l-34 34l34 35h396l35 -35z" />
    <glyph glyph-name="odieresis" unicode="&#xf6;" 
d="M256 1304l-27 27l27 28l27 -28zM495 1304l-27 27l27 28l27 -28zM573 17h-396l-34 34l34 34h396l35 -34zM119 259v-150l-17 -17l-34 34v396l34 34l35 -34v-228zM649 92l-18 17v150l-17 35v228l35 34l34 -34v-396zM102 638l-34 34v396l34 35l17 -18v-150l18 -34v-229z
M649 638l-35 34v229l17 34v150l18 18l34 -35v-396zM573 1109h-396l-34 34l34 35h396l35 -35z" />
    <glyph glyph-name="divide" unicode="&#xf7;" 
d="M341 393v44l34 34l35 -34v-44h-69zM309 563h-132l-34 34l34 34h132l34 -34zM573 563h-131l-34 34l34 34h131l35 -34zM341 802h69v-44l-35 -34l-34 34v44z" />
    <glyph glyph-name="oslash" unicode="&#xf8;" 
d="M573 17h-396l-34 34l34 34h396l35 -34zM119 259v-150l-17 -17l-34 34v396l34 34l35 -34v-228zM171 179v72l136 218v-71zM649 92l-18 17v150l-17 35v228l35 34l34 -34v-396zM102 638l-34 34v396l34 35l17 -18v-150l18 -34v-229zM444 725v72l136 218v-71zM649 638l-35 34
v229l17 34v150l18 18l34 -35v-396zM573 1109h-396l-34 34l34 35h396l35 -35z" />
    <glyph glyph-name="ugrave" unicode="&#xf9;" 
d="M307 1492v82l137 -164v-82zM573 17h-396l-34 34l34 34h396l35 -34zM119 259v-150l-17 -17l-34 34v396l34 34l35 -34v-228zM649 92l-18 17v150l-17 35v228l35 34l34 -34v-396zM102 638l-34 34v396l34 35l17 -18v-150l18 -34v-229zM649 638l-35 34v229l17 34v150l18 18
l34 -35v-396z" />
    <glyph glyph-name="uacute" unicode="&#xfa;" 
d="M307 1328v82l137 164v-82zM573 17h-396l-34 34l34 34h396l35 -34zM119 259v-150l-17 -17l-34 34v396l34 34l35 -34v-228zM649 92l-18 17v150l-17 35v228l35 34l34 -34v-396zM102 638l-34 34v396l34 35l17 -18v-150l18 -34v-229zM649 638l-35 34v229l17 34v150l18 18
l34 -35v-396z" />
    <glyph glyph-name="ucircumflex" unicode="&#xfb;" 
d="M375 1512l-153 -184v82l153 184l154 -184v-82zM573 17h-396l-34 34l34 34h396l35 -34zM119 259v-150l-17 -17l-34 34v396l34 34l35 -34v-228zM649 92l-18 17v150l-17 35v228l35 34l34 -34v-396zM102 638l-34 34v396l34 35l17 -18v-150l18 -34v-229zM649 638l-35 34v229
l17 34v150l18 18l34 -35v-396z" />
    <glyph glyph-name="udieresis" unicode="&#xfc;" 
d="M256 1304l-27 27l27 28l27 -28zM495 1304l-27 27l27 28l27 -28zM573 17h-396l-34 34l34 34h396l35 -34zM119 259v-150l-17 -17l-34 34v396l34 34l35 -34v-228zM649 92l-18 17v150l-17 35v228l35 34l34 -34v-396zM102 638l-34 34v396l34 35l17 -18v-150l18 -34v-229z
M649 638l-35 34v229l17 34v150l18 18l34 -35v-396z" />
    <glyph glyph-name="yacute" unicode="&#xfd;" 
d="M307 1328v82l137 164v-82zM341 137v218l17 34v150l17 17l18 -17v-150l17 -34v-218h-69zM309 563h-132l-34 34l34 34h132l34 -34zM102 638l-34 34v396l34 35l17 -18v-150l18 -34v-229zM573 563h-131l-34 34l34 34h131l35 -34zM649 638l-35 34v229l17 34v150l18 18l34 -35
v-396z" />
    <glyph glyph-name="thorn" unicode="&#xfe;" 
d="M102 -316l-34 34v260l34 32l35 -32v-260zM573 17h-396l-34 34l34 34h396l35 -34zM119 259v-150l-17 -17l-34 34v396l34 34l35 -34v-228zM309 563h-132l-34 34l34 34h132l34 -34zM649 92l-18 17v150l-17 35v228l35 34l34 -34v-396zM102 638l-34 34v396l34 35l17 -18v-150
l18 -34v-229zM573 563h-131l-34 34l34 34h131l35 -34z" />
    <glyph glyph-name="ydieresis" unicode="&#xff;" 
d="M256 1304l-27 27l27 28l27 -28zM495 1304l-27 27l27 28l27 -28zM341 137v218l17 34v150l17 17l18 -17v-150l17 -34v-218h-69zM309 563h-132l-34 34l34 34h132l34 -34zM102 638l-34 34v396l34 35l17 -18v-150l18 -34v-229zM573 563h-131l-34 34l34 34h131l35 -34zM649 638
l-35 34v229l17 34v150l18 18l34 -35v-396z" />
    <glyph glyph-name="caron" unicode="&#x2c7;" 
d="M375 1307l-153 185v82l153 -185l154 185v-82z" />
    <glyph glyph-name="ring" unicode="&#x2da;" 
d="M375 1321l-27 27l27 28l28 -28zM307 1389l-27 28l27 27l28 -27zM444 1389l-28 28l28 27l27 -27zM375 1457l-27 28l27 27l28 -27z" />
    <glyph glyph-name="euro" unicode="&#x20ac;" 
d="M573 17h-396l-34 34l34 34h396l35 -34zM119 259v-150l-17 -17l-34 34v396l34 34l35 -34v-228zM205 393v68h78l34 -34l-34 -34h-78zM102 638l-34 34v396l34 35l17 -18v-150l18 -34v-229zM205 734v68h181l34 -34l-34 -34h-181zM573 1109h-396l-34 34l34 35h396l35 -35z" />
  </font>
</defs>
</svg>
